<?xml version="1.0" standalone="no"?>
<!DOCTYPE svg PUBLIC "-//W3C//DTD SVG 1.1//EN" "http://www.w3.org/Graphics/SVG/1.1/DTD/svg11.dtd" >
<svg xmlns="http://www.w3.org/2000/svg">
<metadata>Generated by IcoMoon</metadata>
<defs>
<font id="townpress" horiz-adv-x="1024">
<font-face units-per-em="1024" ascent="960" descent="-64" />
<missing-glyph horiz-adv-x="1024" />
<glyph unicode="&#x20;" horiz-adv-x="512" d="" />
<glyph unicode="&#xe900;" glyph-name="plane" d="M384.043 874.667h256v-85.333h-256v85.333zM968.576 604.203c-18.901 35.2-55.467 57.131-95.403 57.131h-233.131c0 70.571-57.429 128-128 128-69.205 0-125.397-55.339-127.403-128h-233.728c-39.936 0-76.501-21.931-95.403-57.131-18.901-35.243-16.853-77.824 5.376-111.147 16.896-25.301 42.24-43.733 73.259-52.565l278.315-65.536 9.771-97.621h-38.187c-70.571 0-128-57.429-128-128v-42.667c0-23.595 19.115-42.667 42.667-42.667h426.667c23.552 0 42.667 19.072 42.667 42.667v42.667c0 70.571-57.429 128-128 128h-38.229l9.728 97.579 280.277 66.091c29.141 8.277 54.485 26.752 71.424 52.096 22.187 33.28 24.235 75.861 5.333 111.104zM155.605 523.093c-9.685 2.688-18.133 8.917-23.765 17.323-4.693 7.040-5.12 16-1.152 23.467 4.053 7.424 11.776 12.117 20.224 12.117h241.451l11.136-111.36-247.893 58.453zM640.043 192c23.509 0 42.667-19.157 42.667-42.667h-341.333c0 23.509 19.157 42.667 42.667 42.667h256zM512.043 277.333h-4.096l-38.571 384c0 23.509 19.157 42.667 42.667 42.667s42.667-19.157 42.88-38.4l-38.827-388.267h-4.053zM892.245 540.459c-5.632-8.448-14.080-14.677-21.888-16.896l-249.856-58.965 11.051 111.403h241.621c8.448 0 16.171-4.693 20.181-12.117 3.968-7.467 3.541-16.427-1.109-23.424z" />
<glyph unicode="&#xe901;" glyph-name="text-align-left" d="M85.333 832h853.333v-85.333h-853.333v85.333zM85.333 661.333h853.333v-85.333h-853.333v85.333zM85.333 490.667h853.333v-85.333h-853.333v85.333zM85.333 320h853.333v-85.333h-853.333v85.333zM85.333 149.333h597.333v-85.333h-597.333v85.333z" />
<glyph unicode="&#xe902;" glyph-name="at-sign" d="M512 874.667c-235.264 0-426.667-191.403-426.667-426.667 0-235.307 191.403-426.667 426.667-426.667 86.997 0 170.368 25.685 241.152 74.283l-48.256 70.315c-56.576-38.741-123.221-59.264-192.896-59.264-188.203 0-341.333 153.131-341.333 341.333s153.131 341.333 341.333 341.333 341.333-153.131 341.333-341.333v-33.365c0-59.221-25.515-94.635-68.267-94.635l-0.085-0.768c-2.56 0.555-5.333 0.768-8.064 0.768h-8.917c-24.021 0-59.733 34.901-59.733 58.411v69.589c0 108.203-88.021 196.267-196.267 196.267s-196.267-88.021-196.267-196.267 88.021-196.267 196.267-196.267c52.651 0 100.267 21.077 135.552 54.912 27.691-40.789 74.795-71.979 120.448-71.979l0.085 0.811c2.645-0.555 5.419-0.811 8.235-0.811h8.747c91.819 0 153.6 72.277 153.6 179.968v33.365c0 235.264-191.403 426.667-426.667 426.667zM512 337.109c-61.184 0-110.933 49.749-110.933 110.933s49.749 110.933 110.933 110.933 110.933-49.749 110.933-110.933-49.749-110.933-110.933-110.933z" />
<glyph unicode="&#xe903;" glyph-name="boat" d="M938.667 320h-85.333c0-47.104-38.272-85.333-85.333-85.333s-85.333 38.229-85.333 85.333h-85.333c0-47.104-38.272-85.333-85.333-85.333s-85.333 38.229-85.333 85.333h-85.333c0-47.104-38.272-85.333-85.333-85.333s-85.333 38.229-85.333 85.333h-85.333c0-47.104-38.272-85.333-85.333-85.333v-85.333c51.2 0 96.683 23.168 128 59.008 31.317-35.84 76.8-59.008 128-59.008s96.683 23.168 128 59.008c31.317-35.84 76.8-59.008 128-59.008s96.683 23.168 128 59.008c31.317-35.84 76.8-59.008 128-59.008s96.683 23.168 128 59.008c31.317-35.84 76.8-59.008 128-59.008v85.333c-47.061 0-85.333 38.229-85.333 85.333zM938.667 106.667h-85.333c0-47.104-38.272-85.333-85.333-85.333s-85.333 38.229-85.333 85.333h-85.333c0-47.104-38.272-85.333-85.333-85.333s-85.333 38.229-85.333 85.333h-85.333c0-47.104-38.272-85.333-85.333-85.333s-85.333 38.229-85.333 85.333h-85.333c0-47.104-38.272-85.333-85.333-85.333v-85.333c51.2 0 96.683 23.168 128 59.008 31.317-35.84 76.8-59.008 128-59.008s96.683 23.168 128 59.008c31.317-35.84 76.8-59.008 128-59.008s96.683 23.168 128 59.008c31.317-35.84 76.8-59.008 128-59.008s96.683 23.168 128 59.008c31.317-35.84 76.8-59.008 128-59.008v85.333c-47.061 0-85.333 38.229-85.333 85.333zM215.637 288.213l78.763 32.725-71.296 171.691 288.597 122.325 288.555-122.325-70.187-168.107 78.763-32.811 86.485 207.232c9.045 21.675-1.109 46.507-22.741 55.723l-147.541 62.549v172.117c0 23.595-19.115 42.667-42.667 42.667h-128v128h-85.333v-128h-128c-23.552 0-42.667-19.072-42.667-42.667v-172.075l-147.541-62.549c-21.589-9.173-31.744-34.005-22.741-55.68l87.552-210.816zM383.701 746.667h256v-93.269l-111.36 47.189c-10.624 4.48-22.656 4.48-33.28 0l-111.36-47.189v93.269z" />
<glyph unicode="&#xe904;" glyph-name="book" d="M981.333 960h-384c-11.307 0-22.187-4.523-30.165-12.501l-55.168-55.168-55.168 55.168c-7.979 7.979-18.859 12.501-30.165 12.501h-384c-23.552 0-42.667-19.115-42.667-42.667v-682.667c0-23.595 19.115-42.667 42.667-42.667h170.667v85.333h-128v597.333h323.669l60.331-60.331v-67.669h85.333v67.669l60.331 60.331h323.669v-640h85.333v682.667c0 23.552-19.115 42.667-42.667 42.667zM896 320c0 164.651-133.973 298.667-298.667 298.667s-298.667-134.016-298.667-298.667c0-164.693 133.973-298.667 298.667-298.667 77.867 0 148.608 30.165 201.813 79.147l139.52-139.52 60.331 60.373-145.664 145.621c26.923 44.843 42.667 97.067 42.667 153.045zM597.333 106.667c-117.632 0-213.333 95.701-213.333 213.333s95.701 213.333 213.333 213.333 213.333-95.701 213.333-213.333-95.701-213.333-213.333-213.333zM693.333 448h-192c-17.707 0-32-14.336-32-32v-96h64v64h32v-128h-64v-64h192v64h-64v128h32v-64h64v96c0 17.664-14.293 32-32 32zM682.667 832h170.667v-85.333h-170.667v85.333zM170.667 832h170.667v-85.333h-170.667v85.333zM170.667 661.333h170.667v-85.333h-170.667v85.333zM170.667 490.667h85.333v-85.333h-85.333v85.333zM768 704h85.333v-85.333h-85.333v85.333z" />
<glyph unicode="&#xe905;" glyph-name="briefcase" d="M896 704h-213.333v128c0 23.552-19.072 42.667-42.667 42.667h-256c-23.552 0-42.667-19.115-42.667-42.667v-128h-213.333c-23.552 0-42.667-19.115-42.667-42.667v-213.333c0-23.552 19.115-42.667 42.667-42.667v-298.667c0-47.061 38.272-85.333 85.333-85.333h597.333c47.104 0 85.333 38.272 85.333 85.333v298.667c23.595 0 42.667 19.115 42.667 42.667v213.333c0 23.552-19.072 42.667-42.667 42.667zM426.667 789.333h170.667v-85.333h-170.667v85.333zM170.667 618.667h682.667v-128h-213.333v42.667c0 23.552-19.072 42.667-42.667 42.667h-170.667c-23.552 0-42.667-19.115-42.667-42.667v-42.667h-213.333v128zM554.667 490.667v-85.333h-85.333v85.333h85.333zM810.667 106.667h-597.333v298.667h170.667v-42.667c0-23.552 19.115-42.667 42.667-42.667h170.667c23.595 0 42.667 19.115 42.667 42.667v42.667h170.667v-298.667z" />
<glyph unicode="&#xe906;" glyph-name="building" d="M919.637 782.208l-128 85.333c-14.336 9.557-32.981 9.557-47.317 0l-128-85.333c-11.861-7.936-18.987-21.291-18.987-35.499v-213.333h-170.667v213.333c0 14.208-7.125 27.563-18.987 35.499l-128 85.333c-14.336 9.557-32.981 9.557-47.317 0l-128-85.333c-11.904-7.936-19.029-21.291-19.029-35.499v-682.667c0-23.637 19.115-42.667 42.667-42.667h256c23.552 0 42.667 19.029 42.667 42.667v85.333c0 47.019 38.272 85.333 85.333 85.333s85.333-38.315 85.333-85.333v-85.333c0-23.637 19.115-42.667 42.667-42.667h256c23.552 0 42.667 19.029 42.667 42.667v682.667c0 14.208-7.125 27.563-19.029 35.499zM853.333 106.709h-170.667v42.667c0 94.080-76.544 170.667-170.667 170.667s-170.667-76.587-170.667-170.667v-42.667h-170.667v617.131l85.333 56.875 85.333-56.875v-233.088c0-23.637 19.115-42.667 42.667-42.667h256c23.552 0 42.667 19.029 42.667 42.667v233.088l85.333 56.875 85.333-56.875v-617.131zM725.333 704.043h85.333v-85.333h-85.333v85.333zM725.333 533.376h85.333v-85.333h-85.333v85.333zM725.333 362.709h85.333v-85.333h-85.333v85.333zM213.333 704.043h85.333v-85.333h-85.333v85.333zM213.333 533.376h85.333v-85.333h-85.333v85.333zM213.333 362.709h85.333v-85.333h-85.333v85.333z" />
<glyph unicode="&#xe907;" glyph-name="graph" d="M810.667 320c47.104 0 85.333 38.144 85.333 85.333 0 47.104-38.229 85.333-85.333 85.333s-85.333-38.229-85.333-85.333c0-0.469 0.128-0.896 0.171-1.365l-87.125-52.267c-12.245 6.784-26.069 10.965-41.045 10.965-19.84 0-37.888-7.083-52.395-18.432l-76.885 30.763c-5.973 41.216-41.131 73.003-84.053 73.003-42.88 0-78.037-31.787-84.096-73.003l-86.571-34.603v211.456l129.664 77.781c12.203-6.784 26.027-10.965 41.003-10.965 7.595 0 14.848 1.323 21.845 3.157l66.688-66.688c-1.877-6.997-3.2-14.251-3.2-21.803 0-47.189 38.229-85.333 85.333-85.333s85.333 38.144 85.333 85.333c0 7.552-1.28 14.805-3.157 21.845l152.021 151.979c6.955-1.877 14.208-3.157 21.803-3.157 47.104 0 85.333 38.187 85.333 85.333 0 47.104-38.229 85.333-85.333 85.333s-85.333-38.229-85.333-85.333c0-7.595 1.323-14.805 3.157-21.845l-152.021-152.021c-6.955 1.877-14.208 3.2-21.803 3.2s-14.805-1.323-21.845-3.2l-66.688 66.688c1.92 6.997 3.2 14.208 3.2 21.845 0 47.104-38.229 85.333-85.333 85.333s-85.333-38.229-85.333-85.333c0-0.469 0.128-0.896 0.128-1.365l-85.461-51.285v180.651h-85.333v-725.333c0-23.552 19.115-42.667 42.667-42.667h725.333v85.333h-682.667v99.115l118.272 47.317c14.507-11.392 32.555-18.432 52.395-18.432 19.883 0 37.931 7.040 52.395 18.432l76.885-30.763c5.973-41.259 41.131-73.003 84.053-73.003 47.104 0 85.333 38.144 85.333 85.333 0 0.469-0.128 0.896-0.128 1.323l87.083 52.309c12.245-6.784 26.069-10.965 41.045-10.965z" />
<glyph unicode="&#xe908;" glyph-name="calendar-full" d="M896 832h-128v85.333h-85.333v-256h85.333v85.333h128v-640h-768v640h85.333v85.333h-85.333c-47.104 0-85.333-38.187-85.333-85.333v-640c0-47.104 38.229-85.333 85.333-85.333h768c47.104 0 85.333 38.229 85.333 85.333v640c0 47.147-38.229 85.333-85.333 85.333zM341.333 746.667h298.667v85.333h-298.667v85.333h-85.333v-256h85.333zM213.333 576h170.667v-170.667h-170.667v170.667zM426.667 576h170.667v-170.667h-170.667v170.667zM640 576h170.667v-170.667h-170.667v170.667zM213.333 362.667h170.667v-170.667h-170.667v170.667zM426.667 362.667h170.667v-170.667h-170.667v170.667z" />
<glyph unicode="&#xe909;" glyph-name="camera2" d="M512 618.709c-117.632 0-213.333-95.701-213.333-213.333 0-117.675 95.701-213.333 213.333-213.333s213.333 95.659 213.333 213.333c0 117.675-95.701 213.333-213.333 213.333zM512 277.376c-70.571 0-128 57.429-128 128s57.429 128 128 128 128-57.429 128-128c0-70.571-57.429-128-128-128zM853.333 704.043h-147.84l-59.989 89.984c-15.872 23.808-42.411 38.016-70.997 38.016h-125.013c-28.587 0-55.125-14.208-70.997-38.016l-59.989-89.984h-147.84c-47.061 0-85.333-38.272-85.333-85.333v-469.333c0-47.061 38.272-85.333 85.333-85.333h682.667c47.061 0 85.333 38.272 85.333 85.333v469.333c0 47.061-38.272 85.333-85.333 85.333zM170.667 149.376v469.333h193.493l85.333 128h125.013l85.333-128h193.493l0.043-469.333h-682.709z" />
<glyph unicode="&#xe90a;" glyph-name="car" d="M794.368 576h-564.736l-144.299-288.597v-223.403h85.333c0-47.104 38.272-85.333 85.333-85.333s85.333 38.229 85.333 85.333h341.333c0-47.104 38.272-85.333 85.333-85.333s85.333 38.229 85.333 85.333h85.333v223.403l-144.299 288.597zM282.368 490.667h459.264l85.333-170.667h-629.931l85.333 170.667zM640 149.333h-256v85.333h256v-85.333zM170.667 234.667h128v-85.333h-128v85.333zM725.333 149.333v85.333h128v-85.333h-128z" />
<glyph unicode="&#xe90b;" glyph-name="bubble" d="M511.915 64h-426.667c-16.981 0-32.341 10.069-39.083 25.6-6.784 15.573-3.712 33.664 7.851 46.080l98.389 105.984c-44.075 61.611-67.157 132.309-67.157 206.336 0 211.755 191.403 384 426.667 384s426.667-172.245 426.667-384-191.403-384-426.667-384zM183.083 149.333h328.832c188.203 0 341.333 133.973 341.333 298.667 0 164.651-153.131 298.667-341.333 298.667s-341.333-134.016-341.333-298.667c0-65.579 24.235-128 70.059-180.565 14.336-16.469 13.952-41.088-0.896-57.088l-56.661-61.013z" />
<glyph unicode="&#xe90c;" glyph-name="bubbles" d="M1023.915-21.333h-357.035c-152.917 0-277.333 114.816-277.333 256s124.416 256 277.333 256 277.333-114.816 277.333-256c0-35.072-7.893-69.888-22.997-101.931l102.699-154.069zM666.88 405.333c-105.856 0-192-76.587-192-170.667s86.144-170.667 192-170.667h197.632l-43.691 65.579 14.421 23.296c15.701 25.387 23.637 52.864 23.637 81.792 0 94.080-86.144 170.667-192 170.667zM304.213 192h-273.664l161.067 161.024c-38.101 54.059-58.069 115.669-58.069 180.309 0 188.203 172.288 341.333 384 341.333 190.635 0 354.133-126.336 380.331-293.931l-84.309-13.184c-19.755 126.464-147.029 221.781-296.021 221.781-164.693 0-298.667-114.816-298.667-256 0-56.32 21.333-109.995 61.611-155.136l26.88-30.080-70.827-70.784h67.669v-85.333z" />
<glyph unicode="&#xe90d;" glyph-name="clapboard-play" d="M426.667 490.667v-256l213.333 128zM42.667 832v-682.667c0-47.061 38.272-85.333 85.333-85.333h768c47.061 0 85.333 38.272 85.333 85.333v682.667h-938.667zM384 661.333l64 85.333h234.667l-64-85.333h-234.667zM128 746.667h213.333l-64-85.333h-149.333v85.333zM896.043 149.333h-768.043v426.667h768l0.043-426.667zM725.333 661.333l64 85.333h106.667v-85.333h-170.667z" />
<glyph unicode="&#xe90e;" glyph-name="clock2" d="M512 21.333c-211.712 0-384 172.245-384 384s172.288 384 384 384 384-172.245 384-384-172.288-384-384-384zM512 704c-164.693 0-298.667-133.973-298.667-298.667s133.973-298.667 298.667-298.667 298.667 133.973 298.667 298.667c0 164.693-133.973 298.667-298.667 298.667zM609.835 247.168l-128 128c-8.021 8.021-12.501 18.859-12.501 30.165v213.333h85.333v-195.669l115.499-115.499-60.331-60.331z" />
<glyph unicode="&#xe90f;" glyph-name="cross" d="M885.291 759.168l-60.373 60.331-311.125-311.168-311.168 311.168-60.373-60.331 311.168-311.168-311.168-311.168 60.373-60.331 311.168 311.168 311.125-311.168 60.373 60.331-311.168 311.168z" />
<glyph unicode="&#xe910;" glyph-name="cloud" d="M640 661.333c-121.899 0-228.565-72.491-274.645-181.504-21.461 7.125-43.947 10.837-66.688 10.837-117.632 0-213.333-95.701-213.333-213.333s95.701-213.333 213.333-213.333h341.333c164.693 0 298.667 133.973 298.667 298.667 0 164.651-133.973 298.667-298.667 298.667zM640 149.333h-341.333c-70.571 0-128 57.429-128 128s57.429 128 128 128c24.277 0 48.171-7.125 69.077-20.565 11.648-7.552 26.325-8.875 39.125-3.669 12.885 5.205 22.4 16.341 25.557 29.867 22.571 97.152 107.904 165.035 207.573 165.035 117.632 0 213.333-95.701 213.333-213.333s-95.701-213.333-213.333-213.333z" />
<glyph unicode="&#xe911;" glyph-name="cog" d="M810.667 64h-597.333c-47.104 0-85.333 38.272-85.333 85.333v597.333c0 47.019 38.229 85.333 85.333 85.333h597.333c47.104 0 85.333-38.315 85.333-85.333v-597.333c0-47.019-38.229-85.333-85.333-85.333zM213.333 746.667v-597.333h597.419l-0.085 597.333h-597.333zM768 405.333v85.333h-91.435c-4.011 15.488-10.155 30.037-18.091 43.477l64.683 64.683-60.331 60.373-64.64-64.683c-13.525 7.936-28.032 14.080-43.52 18.091v91.392h-85.333v-91.392c-15.488-4.053-29.995-10.155-43.52-18.133l-64.64 64.725-60.331-60.331 64.64-64.683c-7.893-13.483-14.080-27.989-18.048-43.52h-91.435v-85.333h91.435c4.011-15.488 10.155-30.037 18.091-43.477l-64.683-64.725 60.331-60.331 64.683 64.683c13.483-7.936 27.989-14.080 43.52-18.133v-91.349h85.333v91.392c15.488 4.053 29.995 10.197 43.52 18.133l64.683-64.683 60.331 60.331-64.683 64.725c7.936 13.44 14.080 27.947 18.091 43.477h91.349zM512 362.667c-47.104 0-85.333 38.272-85.333 85.333 0 47.019 38.229 85.333 85.333 85.333s85.333-38.315 85.333-85.333c0-47.019-38.229-85.333-85.333-85.333z" />
<glyph unicode="&#xe912;" glyph-name="cog2" d="M841.643 362.667h-88.576c-35.243-99.328-129.877-170.667-241.067-170.667-141.184 0-256 114.773-256 256 0 111.189 71.424 205.781 170.667 241.067v88.576c-38.357-9.984-74.453-25.643-106.368-47.403l-64.768 64.725-90.496-90.496 64.768-64.768c-21.803-31.957-37.973-67.883-47.872-106.368h-96.597v-170.667h96.597c9.899-38.528 26.069-74.411 47.872-106.368l-64.768-64.768 90.496-90.539 64.768 64.768c31.957-21.76 67.925-37.888 106.368-47.872v-96.555h170.667v96.555c38.443 9.941 74.411 26.112 106.368 47.872l64.768-64.768 90.496 90.539-64.768 64.768c21.76 31.915 37.461 68.011 47.445 106.368zM938.667 622.549v77.611h-63.659c-3.456 13.312-8.661 25.771-15.275 37.376l40.149 40.192-58.155 58.155-40.235-40.149c-11.605 6.656-24.064 11.819-37.419 15.275v63.659h-77.525v-63.659c-13.312-3.456-25.771-8.619-37.376-15.275l-40.192 40.149-58.197-58.155 40.192-40.192c-6.613-11.605-11.819-24.064-15.317-37.376h-63.659v-77.568h63.616c3.499-13.312 8.704-25.771 15.317-37.419l-40.192-40.192 58.197-58.155 40.192 40.107c11.605-6.613 24.064-11.819 37.376-15.275v-63.659h77.525v63.616c13.355 3.499 25.771 8.661 37.419 15.275l40.192-40.107 58.155 58.155-40.149 40.192c6.613 11.648 11.819 24.107 15.275 37.419h63.744zM725.333 576c-47.147 0-85.333 38.229-85.333 85.333s38.187 85.333 85.333 85.333 85.333-38.229 85.333-85.333-38.187-85.333-85.333-85.333z" />
<glyph unicode="&#xe913;" glyph-name="contacts" d="M810.667 874.667h-512c-47.061 0-85.333-38.229-85.333-85.333v-85.333h-85.333v-85.333h85.333v-128h-85.333v-85.333h85.333v-128h-85.333v-85.333h85.333v-85.333c0-47.104 38.272-85.333 85.333-85.333h512c47.061 0 85.333 38.229 85.333 85.333v682.667c0 47.104-38.229 85.333-85.333 85.333zM298.667 106.667v85.333h42.667v85.333h-42.667v128h42.667v85.333h-42.667v128h42.667v85.333h-42.667v85.333h512l0.043-682.667h-512.043zM549.504 611.541l31.019-31.019c8.875-8.789 23.125-8.789 31.915 0l63.659 63.744c8.747 8.747 8.747 22.997 0 31.829l-63.659 63.659c-8.789 8.789-23.040 8.789-31.915 0l-79.531-79.616 0.427-0.469c-99.243-107.435-99.243-273.621 0-381.099l-0.427-0.469 79.531-79.531c8.875-8.789 23.125-8.789 31.915 0l63.659 63.659c8.747 8.832 8.747 22.997 0 31.829l-63.659 63.659c-8.789 8.832-23.040 8.832-31.915 0l-31.019-31.061c-72.747 81.109-72.747 203.947 0 284.885z" />
<glyph unicode="&#xe914;" glyph-name="reading2" d="M896 789.333h-298.667c-11.349 0-22.187-4.48-30.165-12.501l-55.168-55.168-55.168 55.168c-7.979 7.979-18.816 12.501-30.165 12.501h-298.667c-23.595 0-42.667-19.157-42.667-42.667v-554.667c0-23.552 19.072-42.667 42.667-42.667h281.003l72.832-72.832c8.32-8.363 19.243-12.501 30.165-12.501s21.845 4.181 30.165 12.501l72.832 72.832h281.003c23.595 0 42.667 19.115 42.667 42.667v554.667c0 23.509-19.072 42.667-42.667 42.667zM426.667 234.667h-256v469.333h238.336l60.331-60.373v-434.005l-12.501 12.501c-7.979 8.021-18.816 12.544-30.165 12.544zM853.333 234.667h-256c-11.349 0-22.187-4.48-30.165-12.501l-12.501-12.501v433.963l60.331 60.373h238.336v-469.333z" />
<glyph unicode="&#xe915;" glyph-name="reading" d="M896 789.333h-298.667c-11.349 0-22.187-4.48-30.165-12.501l-55.168-55.168-55.168 55.168c-7.979 7.979-18.816 12.501-30.165 12.501h-298.667c-23.595 0-42.667-19.157-42.667-42.667v-554.667c0-23.552 19.072-42.667 42.667-42.667h281.003l72.832-72.832c8.32-8.363 19.243-12.501 30.165-12.501s21.845 4.181 30.165 12.501l72.832 72.832h281.003c23.595 0 42.667 19.115 42.667 42.667v554.667c0 23.509-19.072 42.667-42.667 42.667zM426.667 234.667h-256v469.333h238.336l60.331-60.373v-434.005l-12.501 12.501c-7.979 8.021-18.816 12.544-30.165 12.544zM853.333 234.667h-256c-11.349 0-22.187-4.48-30.165-12.501l-12.501-12.501v433.963l60.331 60.373h238.336v-469.333zM298.667 618.667h128v-85.333h-128v85.333zM213.333 490.667h213.333v-85.333h-213.333v85.333zM213.333 362.667h213.333v-85.333h-213.333v85.333zM597.333 362.667h213.333v-85.333h-213.333v85.333zM597.333 490.667h213.333v-85.333h-213.333v85.333zM597.333 618.667h128v-85.333h-128v85.333z" />
<glyph unicode="&#xe916;" glyph-name="book2" d="M810.667 874.624h-597.333c-23.595 0-42.667-19.115-42.667-42.667v-768c0-23.552 19.072-42.667 42.667-42.667h597.333c23.595 0 42.667 19.115 42.667 42.667v768c0 23.552-19.072 42.667-42.667 42.667zM256 789.291h85.333v-682.667h-85.333v682.667zM768 106.624h-341.333v682.667h341.333v-682.667zM469.333 703.957h256v-128h-256v128z" />
<glyph unicode="&#xe917;" glyph-name="book3" d="M512 63.957c-5.077 0-10.155 0.896-15.019 2.688l-341.333 128c-16.597 6.272-27.648 22.187-27.648 39.979v554.667c0 14.805 7.68 28.501 20.267 36.267 12.587 7.808 28.331 8.491 41.472 1.92l322.261-161.152 322.261 161.109c13.227 6.613 28.928 5.931 41.515-1.877 12.544-7.765 20.224-21.461 20.224-36.267v-554.667c0-17.792-11.051-33.707-27.648-39.979l-341.333-128c-4.864-1.749-9.941-2.688-15.019-2.688zM213.333 264.192l298.667-112 298.667 112v456.021l-279.595-139.733c-11.989-6.016-26.155-6.016-38.187 0l-279.552 139.733v-456.021zM597.333 405.291v128l170.667 85.333v-128z" />
<glyph unicode="&#xe918;" glyph-name="book4" d="M853.333 874.624h-682.667c-23.595 0-42.667-19.115-42.667-42.667v-768c0-23.552 19.072-42.667 42.667-42.667h682.667c23.595 0 42.667 19.115 42.667 42.667v768c0 23.552-19.072 42.667-42.667 42.667zM213.333 789.291h85.333v-682.667h-85.333v682.667zM810.667 106.624h-426.667v682.667h426.667v-682.667z" />
<glyph unicode="&#xe919;" glyph-name="bookmark" d="M810.667 832h-42.667v-725.333h-341.333v640h85.333v85.333h-298.667c-23.595 0-42.667-19.157-42.667-42.667v-725.333c0-23.552 19.072-42.667 42.667-42.667h597.333c23.595 0 42.667 19.115 42.667 42.667v725.333c0 23.509-19.072 42.667-42.667 42.667zM341.333 106.667h-85.333v640h85.333v-640zM725.333 448l-85.333 85.333-85.333-85.333v426.667h170.667z" />
<glyph unicode="&#xe91a;" glyph-name="cloud-sun" d="M258.176 874.667h85.333v-85.333h-85.333v85.333zM119.211 818.864l60.335-60.404-60.373-60.305-60.335 60.404 60.373 60.305zM0 618.667h85.333v-85.333h-85.333v85.333zM128 576c0-16.683 2.603-33.237 7.253-48.683 46.933 30.763 103.253 48.683 163.413 48.683 7.253 0 14.080-0.427 21.333-0.853 29.013 43.904 66.603 81.024 110.080 109.611-31.573 37.973-78.507 61.909-131.413 61.909-94.293 0-170.667-76.373-170.667-170.667zM640 661.333c-121.899 0-228.565-72.491-274.645-181.504-21.461 7.125-43.947 10.837-66.688 10.837-117.632 0-213.333-95.701-213.333-213.333s95.701-213.333 213.333-213.333h341.333c164.693 0 298.667 133.973 298.667 298.667 0 164.651-133.973 298.667-298.667 298.667zM640 149.333h-341.333c-70.571 0-128 57.429-128 128s57.429 128 128 128c24.277 0 48.171-7.125 69.077-20.565 11.648-7.552 26.325-8.875 39.125-3.669 12.885 5.205 22.4 16.341 25.557 29.867 22.571 97.152 107.904 165.035 207.573 165.035 117.632 0 213.333-95.701 213.333-213.333s-95.701-213.333-213.333-213.333zM481.235 815.798l60.322-60.365-60.365-60.322-60.322 60.365 60.365 60.322z" />
<glyph unicode="&#xe91b;" glyph-name="cloud-fog" d="M258.176 874.667h85.333v-85.333h-85.333v85.333zM119.211 818.864l60.335-60.404-60.373-60.305-60.335 60.404 60.373 60.305zM0 618.667h85.333v-85.333h-85.333v85.333zM128 576c0-16.683 2.603-33.237 7.253-48.683 46.933 30.763 103.253 48.683 163.413 48.683 7.253 0 14.080-0.427 21.333-0.853 29.013 43.904 66.603 81.024 110.080 109.611-31.573 37.973-78.507 61.909-131.413 61.909-94.293 0-170.667-76.373-170.667-170.667zM640 661.333c-121.899 0-228.565-72.491-274.645-181.504-21.461 7.125-43.947 10.837-66.688 10.837-117.632 0-213.333-95.701-213.333-213.333 0-76.16 41.045-147.029 107.136-185.045l42.539 73.984c-39.68 22.827-64.341 65.365-64.341 111.061 0 70.571 57.429 128 128 128 24.277 0 48.171-7.125 69.077-20.565 11.605-7.552 26.325-8.875 39.125-3.669 12.885 5.205 22.4 16.341 25.557 29.867 22.571 97.152 107.904 165.035 207.573 165.035 117.632 0 213.333-95.701 213.333-213.333 0-75.989-40.96-146.859-106.88-184.917l42.667-73.899c92.245 53.248 149.547 152.448 149.547 258.816 0 164.651-133.973 298.667-298.667 298.667zM481.235 815.798l60.322-60.365-60.365-60.322-60.322 60.365 60.365 60.322zM405.333 192c0-23.564-19.103-42.667-42.667-42.667s-42.667 19.103-42.667 42.667c0 23.564 19.103 42.667 42.667 42.667s42.667-19.103 42.667-42.667zM320 64c0-23.564-19.103-42.667-42.667-42.667s-42.667 19.103-42.667 42.667c0 23.564 19.103 42.667 42.667 42.667s42.667-19.103 42.667-42.667zM554.667 192c0-23.564-19.103-42.667-42.667-42.667s-42.667 19.103-42.667 42.667c0 23.564 19.103 42.667 42.667 42.667s42.667-19.103 42.667-42.667zM469.333 64c0-23.564-19.103-42.667-42.667-42.667s-42.667 19.103-42.667 42.667c0 23.564 19.103 42.667 42.667 42.667s42.667-19.103 42.667-42.667zM704 192c0-23.564-19.103-42.667-42.667-42.667s-42.667 19.103-42.667 42.667c0 23.564 19.103 42.667 42.667 42.667s42.667-19.103 42.667-42.667zM618.667 64c0-23.564-19.103-42.667-42.667-42.667s-42.667 19.103-42.667 42.667c0 23.564 19.103 42.667 42.667 42.667s42.667-19.103 42.667-42.667z" />
<glyph unicode="&#xe91c;" glyph-name="cloud-rain" d="M258.176 874.667h85.333v-85.333h-85.333v85.333zM119.211 818.864l60.335-60.404-60.373-60.305-60.335 60.404 60.373 60.305zM0 618.667h85.333v-85.333h-85.333v85.333zM128 576c0-16.683 2.603-33.237 7.253-48.683 46.933 30.763 103.253 48.683 163.413 48.683 7.253 0 14.080-0.427 21.333-0.853 29.013 43.904 66.603 81.024 110.080 109.611-31.573 37.973-78.507 61.909-131.413 61.909-94.293 0-170.667-76.373-170.667-170.667zM640 661.333c-121.899 0-228.565-72.491-274.645-181.504-21.461 7.125-43.947 10.837-66.688 10.837-117.632 0-213.333-95.701-213.333-213.333 0-76.16 41.045-147.029 107.136-185.045l42.539 73.984c-39.68 22.827-64.341 65.365-64.341 111.061 0 70.571 57.429 128 128 128 24.277 0 48.171-7.125 69.077-20.565 11.648-7.552 26.325-8.875 39.125-3.669 12.885 5.205 22.4 16.341 25.557 29.867 22.571 97.152 107.904 165.035 207.573 165.035 117.632 0 213.333-95.701 213.333-213.333 0-75.989-40.96-146.859-106.88-184.917l42.667-73.899c92.245 53.248 149.547 152.448 149.547 258.816 0 164.651-133.973 298.667-298.667 298.667zM481.235 815.798l60.322-60.365-60.365-60.322-60.322 60.365 60.365 60.322zM249.91 37.812l128.002 213.337 54.88-32.928-128.002-213.337-54.88 32.928zM603.523 4.903l-54.893 32.909 127.927 213.387 54.893-32.909-127.927-213.387zM399.245 37.814l128.002 213.337 54.88-32.928-128.002-213.337-54.88 32.928z" />
<glyph unicode="&#xe91d;" glyph-name="cloud-snow" d="M258.176 874.667h85.333v-85.333h-85.333v85.333zM119.211 818.864l60.335-60.404-60.373-60.305-60.335 60.404 60.373 60.305zM0 618.667h85.333v-85.333h-85.333v85.333zM128 576c0-16.683 2.603-33.237 7.253-48.683 46.933 30.763 103.253 48.683 163.413 48.683 7.253 0 14.080-0.427 21.333-0.853 29.013 43.904 66.603 81.024 110.080 109.611-31.573 37.973-78.507 61.909-131.413 61.909-94.293 0-170.667-76.373-170.667-170.667zM640 661.333c-121.899 0-228.565-72.491-274.645-181.504-21.461 7.125-43.947 10.837-66.688 10.837-117.632 0-213.333-95.701-213.333-213.333 0-76.16 41.045-147.029 107.136-185.045l42.539 73.984c-39.68 22.827-64.341 65.365-64.341 111.061 0 70.571 57.429 128 128 128 24.277 0 48.171-7.125 69.077-20.565 11.648-7.552 26.325-8.875 39.125-3.669 12.885 5.205 22.4 16.341 25.557 29.867 22.571 97.152 107.904 165.035 207.573 165.035 117.632 0 213.333-95.701 213.333-213.333 0-75.989-40.96-146.859-106.88-184.917l42.667-73.899c92.245 53.248 149.547 152.448 149.547 258.816 0 164.651-133.973 298.667-298.667 298.667zM481.235 815.798l60.322-60.365-60.365-60.322-60.322 60.365 60.365 60.322zM396.715 171.947l-37.717-37.717-37.717 37.717-45.227-45.269 37.717-37.675-37.717-37.717 45.227-45.227 37.717 37.675 37.717-37.675 45.227 45.227-37.675 37.717 37.675 37.675zM652.715 171.947l-37.717-37.717-37.717 37.717-45.227-45.269 37.717-37.675-37.717-37.717 45.227-45.227 37.717 37.675 37.717-37.675 45.227 45.227-37.675 37.717 37.675 37.675z" />
<glyph unicode="&#xe91e;" glyph-name="cloud-lightning" d="M258.176 874.667h85.333v-85.333h-85.333v85.333zM119.211 818.864l60.335-60.404-60.373-60.305-60.335 60.404 60.373 60.305zM0 618.667h85.333v-85.333h-85.333v85.333zM128 576c0-16.683 2.603-33.237 7.253-48.683 46.933 30.763 103.253 48.683 163.413 48.683 7.253 0 14.080-0.427 21.333-0.853 29.013 43.904 66.603 81.024 110.080 109.611-31.573 37.973-78.507 61.909-131.413 61.909-94.293 0-170.667-76.373-170.667-170.667zM640 661.333c-121.899 0-228.565-72.491-274.645-181.504-21.461 7.125-43.947 10.837-66.688 10.837-117.632 0-213.333-95.701-213.333-213.333 0-76.16 41.045-147.029 107.136-185.045l42.539 73.984c-39.68 22.827-64.341 65.365-64.341 111.061 0 70.571 57.429 128 128 128 24.277 0 48.171-7.125 69.077-20.565 11.648-7.552 26.325-8.875 39.125-3.669 12.885 5.205 22.4 16.341 25.557 29.867 22.571 97.152 107.904 165.035 207.573 165.035 117.632 0 213.333-95.701 213.333-213.333 0-75.989-40.96-146.859-106.88-184.917l42.667-73.899c92.245 53.248 149.547 152.448 149.547 258.816 0 164.651-133.973 298.667-298.667 298.667zM481.235 815.798l60.322-60.365-60.365-60.322-60.322 60.365 60.365 60.322zM512 362.667l-170.667-213.333h128v-170.667l170.667 213.333h-128z" />
<glyph unicode="&#xe91f;" glyph-name="diamond" d="M933.035 554.496l-170.667 298.667c-7.595 13.312-21.717 21.504-37.035 21.504h-426.667c-15.317 0-29.44-8.192-37.035-21.504l-170.667-298.667c-8.789-15.317-7.168-34.517 4.053-48.171l384-469.376c8.064-9.899 20.224-15.659 32.981-15.659s24.917 5.717 32.981 15.659l384 469.376c11.221 13.653 12.843 32.853 4.053 48.171zM448.725 576l63.275 147.669 63.275-147.669h-126.549zM584.149 490.667l-72.149-264.533-72.107 264.533h144.256zM576.725 789.333h92.032l-36.821-128.896-55.211 128.896zM392.064 660.437l-36.821 128.896h92.032l-55.211-128.896zM327.424 576h-125.909l83.925 146.901 41.984-146.901zM351.403 490.667l66.688-244.523-200.064 244.523h133.376zM672.597 490.667h133.376l-200.021-244.523 66.645 244.523zM696.576 576l41.941 146.901 83.968-146.901h-125.909z" />
<glyph unicode="&#xe920;" glyph-name="road-sign" d="M725.333 533.376c11.307 0 22.187 4.48 30.165 12.459l85.333 85.333c16.683 16.683 16.683 43.648 0 60.331l-85.333 85.333c-8.021 8.064-18.859 12.544-30.165 12.544h-213.333v85.333h-85.333v-85.333h-256c-23.552 0-42.667-19.157-42.667-42.667v-170.667c0-23.595 19.115-42.667 42.667-42.667h256v-85.333h-213.333c-11.307 0-22.187-4.523-30.165-12.501l-85.333-85.333c-16.683-16.683-16.683-43.648 0-60.331l85.333-85.333c7.979-8.021 18.816-12.501 30.165-12.501h213.333v-170.667h85.333v170.667h256c23.552 0 42.667 19.072 42.667 42.667v170.667c0 23.509-19.115 42.667-42.667 42.667h-256v85.333h213.333zM725.333 362.709v-85.333h-494.336l-42.667 42.667 42.667 42.667h494.336zM213.333 704.043h494.336l42.667-42.667-42.667-42.667h-494.336v85.333z" />
<glyph unicode="&#xe921;" glyph-name="envelope" d="M853.333 661.333h-682.667c-47.061 0-85.333-38.272-85.333-85.333v-384c0-47.061 38.272-85.333 85.333-85.333h682.667c47.061 0 85.333 38.272 85.333 85.333v384c0 47.061-38.272 85.333-85.333 85.333zM772.821 576l-260.821-162.987-260.821 162.987h521.643zM170.667 192v333.696l318.72-199.211c6.912-4.309 14.763-6.485 22.613-6.485s15.701 2.176 22.613 6.485l318.72 199.253 0.043-333.739h-682.709z" />
<glyph unicode="&#xe922;" glyph-name="file" d="M657.664 874.667h-401.664c-47.061 0-85.333-38.315-85.333-85.333v-682.667c0-47.061 38.272-85.333 85.333-85.333h512c47.061 0 85.333 38.272 85.333 85.333v572.331l-195.669 195.669zM768.043 106.667h-512.043v682.667h341.333v-170.667h170.667l0.043-512zM341.333 490.667h256v-85.333h-256v85.333zM341.333 320h341.333v-85.333h-341.333v85.333z" />
<glyph unicode="&#xe923;" glyph-name="papers" d="M742.997 960h-316.331c-47.061 0-85.333-38.315-85.333-85.333v-597.333c0-47.061 38.272-85.333 85.333-85.333h426.667c47.061 0 85.333 38.272 85.333 85.333v486.997l-195.669 195.669zM853.376 277.333h-426.709v597.333h256v-170.667h170.667l0.043-426.667zM298.667 832h-85.333v-682.667c0-47.061 38.272-85.333 85.333-85.333h512v85.333h-512v682.667zM170.667 704h-85.333v-682.667c0-47.061 38.272-85.333 85.333-85.333h512v85.333h-512v682.667z" />
<glyph unicode="&#xe924;" glyph-name="fire" d="M512 17.916c169.421 0 307.2 137.779 307.2 307.2 0 114.586-99.635 267.366-111.002 284.416-8.499 12.749-22.323 20.992-37.53 22.528-15.36 1.485-30.413-3.942-41.267-14.746l-66.202-66.202v234.803c0 20.685-12.493 39.373-31.59 47.309-19.2 7.936-41.216 3.584-55.808-11.11-11.11-11.059-271.002-273.562-271.002-496.998 0-169.421 137.779-307.2 307.2-307.2v0zM460.8 649.417v-221.901c0-20.685 12.493-39.373 31.59-47.309 19.098-7.885 41.114-3.533 55.808 11.162l107.213 107.162c28.672-52.378 61.389-124.058 61.389-173.414 0-112.947-91.904-204.8-204.8-204.8s-204.8 91.853-204.8 204.8c0 102.4 80.896 231.322 153.6 324.301v0z" />
<glyph unicode="&#xe925;" glyph-name="archive" d="M853.333 661.333h-352l-70.4 93.867c-16 21.376-41.557 34.133-68.267 34.133h-192c-47.061 0-85.333-38.315-85.333-85.333v-554.667c0-47.061 38.272-85.333 85.333-85.333h682.667c47.061 0 85.333 38.272 85.333 85.333v426.667c0 47.019-38.272 85.333-85.333 85.333zM170.667 149.333v554.667h192l70.4-93.867c16-21.376 41.557-34.133 68.267-34.133h352l0.043-426.667h-682.709z" />
<glyph unicode="&#xe926;" glyph-name="bread" d="M938.667 576c0 117.632-95.701 213.333-213.333 213.333h-426.667c-117.632 0-213.333-95.701-213.333-213.333 0-91.392 59.349-172.288 122.24-201.643l-36.352-217.984c-2.091-12.416 1.408-25.045 9.515-34.603 8.149-9.6 20.053-15.104 32.597-15.104h597.333c12.544 0 24.448 5.504 32.597 15.104 8.064 9.557 11.563 22.229 9.515 34.603l-36.352 217.984c62.891 29.355 122.24 110.251 122.24 201.643zM263.723 192l34.389 206.293c2.091 12.416-1.408 25.045-9.515 34.645-8.149 9.515-20.053 15.061-32.597 15.061-25.472 0-85.333 54.016-85.333 128 0 70.571 57.429 128 128 128h170.667c70.571 0 128-57.429 128-128 0-73.984-59.861-128-85.333-128-12.544 0-24.448-5.547-32.597-15.104-8.064-9.6-11.563-22.229-9.515-34.645l34.389-206.251h-240.555zM590.848 192l-28.459 170.667h169.472l28.459-170.667h-169.472zM768 448h-125.739c24.235 36.096 40.405 80.512 40.405 128 0 48.213-16.683 92.245-43.733 128h86.4c70.571 0 128-57.429 128-128 0-73.984-59.861-128-85.333-128z" />
<glyph unicode="&#xe927;" glyph-name="cheese" d="M505.003 874.069c-8.789-1.493-16.896-5.632-23.168-11.904l-341.333-341.333 0.384-0.384c-7.808-7.765-12.885-18.176-12.885-29.781v-128c0-23.552 19.072-42.667 42.667-42.667h42.667c23.509 0 42.667-19.157 42.667-42.667s-19.157-42.667-42.667-42.667h-42.667c-23.595 0-42.667-19.115-42.667-42.667v-128c0-13.141 6.101-25.557 16.427-33.621 10.411-8.107 23.936-10.965 36.565-7.808l682.667 170.667c19.029 4.779 32.341 21.845 32.341 41.429v426.667c0 42.667-124.075 257.323-390.997 212.736zM532.267 791.893c141.824 18.688 219.819-53.163 256-102.827l-478.507-119.637 222.507 222.464zM810.667 267.989l-597.333-149.333v30.677c70.571 0 128 57.429 128 128s-57.429 128-128 128v52.011l597.333 149.333v-338.688zM768 362.667c0-47.128-38.205-85.333-85.333-85.333s-85.333 38.205-85.333 85.333c0 47.128 38.205 85.333 85.333 85.333s85.333-38.205 85.333-85.333zM469.333 320c0-23.564-19.103-42.667-42.667-42.667s-42.667 19.103-42.667 42.667c0 23.564 19.103 42.667 42.667 42.667s42.667-19.103 42.667-42.667zM554.667 448c0-23.564-19.103-42.667-42.667-42.667s-42.667 19.103-42.667 42.667c0 23.564 19.103 42.667 42.667 42.667s42.667-19.103 42.667-42.667z" />
<glyph unicode="&#xe928;" glyph-name="cherry" d="M713.088 531.371c-13.269 45.397-28.715 156.672 85.077 270.507 12.203 12.203 15.829 30.507 9.259 46.464-6.571 15.915-22.187 26.325-39.424 26.325-308.011 0-426.453-255.189-458.24-343.509-126.293-15.659-224.427-123.392-224.427-253.824 0-141.184 114.816-256 256-256 65.579 0 125.312 25.003 170.667 65.707 46.592-41.941 106.667-65.707 170.667-65.707 141.184 0 256 114.816 256 256 0 130.816-98.731 238.933-225.579 254.037zM670.763 778.112c-61.995-101.077-57.173-194.517-44.587-251.136-42.581-9.515-81.621-29.995-114.219-59.392-31.701 28.459-70.357 49.109-113.28 59.008 29.909 73.387 106.667 211.371 272.085 251.52zM341.333 106.667c-94.080 0-170.667 76.544-170.667 170.667s76.587 170.667 170.667 170.667 170.667-76.544 170.667-170.667-76.587-170.667-170.667-170.667zM682.667 106.667c-44.331 0-85.333 17.664-116.907 47.701 20.053 36.523 31.573 78.421 31.573 122.965s-11.52 86.443-31.573 123.008c31.531 30.037 72.533 47.659 116.907 47.659 94.080 0 170.667-76.544 170.667-170.667s-76.587-170.667-170.667-170.667z" />
<glyph unicode="&#xe929;" glyph-name="greek-column" d="M341.333 533.376h341.333v-85.333h-341.333v85.333zM768 874.709h-512c-94.251 0-170.667-76.459-170.667-170.667 0-94.251 76.416-170.667 170.667-170.667s170.667 76.416 170.667 170.667c0 31.232-9.003 60.117-23.68 85.333h217.984c-14.635-25.216-23.637-54.101-23.637-85.333 0-94.251 76.416-170.667 170.667-170.667s170.667 76.416 170.667 170.667c0 94.251-76.459 170.667-170.667 170.667zM256 618.709c-47.104 0-85.333 38.187-85.333 85.333 0 47.104 38.229 85.333 85.333 85.333s85.333-38.229 85.333-85.333c0-47.147-38.229-85.333-85.333-85.333zM768 618.709c-47.104 0-85.333 38.187-85.333 85.333 0 47.104 38.229 85.333 85.333 85.333s85.333-38.229 85.333-85.333c0-47.147-38.229-85.333-85.333-85.333zM341.333 21.376h85.333v298.667h42.667v-298.667h85.333v298.667h42.667v-298.667h85.333v384h-341.333z" />
<glyph unicode="&#xe92a;" glyph-name="image" d="M861.091 789.333h-698.182c-42.783 0-77.576-29.574-77.576-65.939v-527.515c0-36.366 34.793-65.939 77.576-65.939h698.182c42.822 0 77.576 29.574 77.576 65.939v527.515c0 36.366-34.754 65.939-77.576 65.939v0zM162.909 207.515v504.242h698.143l-0.078-504.242h-698.065zM473.212 362.667l-77.576 77.576-116.364-155.152h465.455l-155.152 232.727zM434.424 556.606c0-42.844-34.732-77.576-77.576-77.576s-77.576 34.732-77.576 77.576c0 42.844 34.732 77.576 77.576 77.576s77.576-34.732 77.576-77.576z" />
<glyph unicode="&#xe92b;" glyph-name="key" d="M865.792 517.845l60.331 60.331-120.619 120.661 60.288 60.288-60.331 60.331-400.597-400.853c-31.36 18.219-67.328 29.397-106.197 29.397-117.803 0-213.333-95.531-213.333-213.333s95.531-213.333 213.333-213.333 213.333 95.531 213.333 213.333c0 48-16.427 91.819-43.221 127.445l155.691 155.648 120.619-120.661 60.373 60.288-120.661 120.747 60.331 60.331 120.661-120.619zM298.667 106.667c-70.699 0-128 57.301-128 128s57.301 128 128 128 128-57.301 128-128-57.301-128-128-128z" />
<glyph unicode="&#xe92c;" glyph-name="list4" d="M213.333 874.667c-70.571 0-128-57.387-128-128s57.429-128 128-128 128 57.429 128 128-57.429 128-128 128zM213.333 704c-23.509 0-42.667 19.157-42.667 42.667s19.157 42.667 42.667 42.667c23.552 0 42.667-19.157 42.667-42.667s-19.115-42.667-42.667-42.667zM213.333 576c-70.571 0-128-57.429-128-128s57.429-128 128-128 128 57.429 128 128-57.429 128-128 128zM213.333 405.333c-23.509 0-42.667 19.157-42.667 42.667s19.157 42.667 42.667 42.667c23.552 0 42.667-19.157 42.667-42.667s-19.115-42.667-42.667-42.667zM213.333 277.333c-70.571 0-128-57.429-128-128s57.429-128 128-128 128 57.429 128 128-57.429 128-128 128zM213.333 106.667c-23.509 0-42.667 19.157-42.667 42.667s19.157 42.667 42.667 42.667c23.552 0 42.667-19.157 42.667-42.667s-19.115-42.667-42.667-42.667zM426.667 789.333h512v-85.333h-512v85.333zM426.667 490.667h512v-85.333h-512v85.333zM426.667 192h512v-85.333h-512v85.333z" />
<glyph unicode="&#xe92d;" glyph-name="earth" d="M512 874.667c-235.264 0-426.667-191.403-426.667-426.667s191.403-426.667 426.667-426.667 426.667 191.403 426.667 426.667-191.403 426.667-426.667 426.667zM341.333 743.125c38.571 22.4 81.835 37.419 128 43.221v-253.013h128v-149.333l-106.24-79.659-76.331 228.992h-73.429v209.792zM512 106.667c-188.203 0-341.333 153.131-341.333 341.333 0 86.229 32.384 164.864 85.333 225.024v-225.024h97.237l94.336-283.008 235.093 176.341v277.333h-128v167.723c168.107-21.12 298.667-164.651 298.667-338.389 0-188.203-153.131-341.333-341.333-341.333z" />
<glyph unicode="&#xe92e;" glyph-name="map2" d="M877.013 199.168c11.861 7.893 18.987 21.248 18.987 35.499v597.333c0 15.744-8.661 30.208-22.528 37.589-13.867 7.467-30.72 6.656-43.776-2.091l-230.059-153.387-188.971 151.211c-6.4 4.992-16 8.661-25.173 9.003-8.789 0.341-18.56-2.475-25.173-6.827l-256-170.667c-11.861-7.936-18.987-21.291-18.987-35.499v-597.333c0-15.744 8.661-30.208 22.528-37.632 6.315-3.413 13.227-5.035 20.139-5.035 8.277 0 16.512 2.389 23.68 7.168l230.059 153.344 188.971-151.168c7.68-6.187 17.109-9.344 26.624-9.344 11.349 0 16.853 3.115 23.424 7.509l256.256 170.325zM170.667 638.507l170.667 113.749v-494.763l-170.667-113.792v494.805zM554.667 152.747l-128 102.4v488.021l128-102.357v-488.064zM810.667 257.493l-170.667-113.792v494.805l170.667 113.749v-494.763z" />
<glyph unicode="&#xe92f;" glyph-name="map-marker" d="M512 448c-70.571 0-128 57.429-128 128s57.429 128 128 128 128-57.429 128-128-57.429-128-128-128zM512 618.667c-23.509 0-42.667-19.157-42.667-42.667 0-23.552 19.157-42.667 42.667-42.667s42.667 19.115 42.667 42.667c0 23.509-19.157 42.667-42.667 42.667zM512-7.125c-100.651 134.272-298.667 415.189-298.667 583.125 0 164.693 133.973 298.667 298.667 298.667s298.667-133.973 298.667-298.667c0-167.936-198.016-448.896-298.667-583.125zM512 789.333c-117.632 0-213.333-95.701-213.333-213.333 0-110.549 132.565-323.541 213.333-439.083 80.725 115.584 213.333 328.619 213.333 439.083 0 117.632-95.701 213.333-213.333 213.333z" />
<glyph unicode="&#xe930;" glyph-name="lock" d="M576 256c0-35.346-28.654-64-64-64s-64 28.654-64 64c0 35.346 28.654 64 64 64s64-28.654 64-64zM384 490.667v128c0 70.571 57.429 128 128 128s128-57.429 128-128v-128h85.333v128c0 117.632-95.701 213.333-213.333 213.333s-213.333-95.701-213.333-213.333v-128c-47.061 0-85.333-38.315-85.333-85.333v-298.667c0-47.061 38.272-85.333 85.333-85.333h426.667c47.061 0 85.333 38.272 85.333 85.333v298.667c0 47.061-38.272 85.333-85.333 85.333h-341.333zM298.667 106.667v298.667h426.667l0.043-298.667h-426.709z" />
<glyph unicode="&#xe931;" glyph-name="magnifier" d="M926.165 94.165l-230.101 230.101c46.464 59.563 71.936 132.309 71.936 209.067 0 91.179-35.541 176.896-100.011 241.323-64.427 64.512-150.144 100.011-241.323 100.011s-176.896-35.499-241.323-100.011c-64.469-64.427-100.011-150.144-100.011-241.323s35.541-176.896 100.011-241.323c64.427-64.512 150.144-100.011 241.323-100.011 76.757 0 149.504 25.429 209.067 71.936l230.101-230.059 60.331 60.288zM426.667 277.333c-68.395 0-132.651 26.624-180.992 74.965-48.384 48.341-75.008 112.64-75.008 181.035 0 68.352 26.624 132.651 75.008 180.992 48.341 48.384 112.597 75.008 180.992 75.008s132.651-26.624 180.992-75.008c48.384-48.341 75.008-112.64 75.008-180.992 0-68.395-26.624-132.693-75.008-181.035-48.341-48.341-112.597-74.965-180.992-74.965z" />
<glyph unicode="&#xe932;" glyph-name="man-woman" horiz-adv-x="1067" d="M213.376 661.419c0 70.571 57.429 128 128 128s128-57.429 128-128c0-70.613-57.429-128-128-128s-128 57.429-128 128v0zM341.376 618.752c23.509 0 42.667 19.157 42.667 42.667 0 23.467-19.157 42.667-42.667 42.667s-42.667-19.2-42.667-42.667c0-23.509 19.157-42.667 42.667-42.667v0zM341.376 533.419c117.632 0 213.333-95.744 213.333-213.333v-128c0-23.595-19.072-42.667-42.667-42.667h-42.667v-170.667c0-23.595-19.072-42.667-42.667-42.667h-170.667c-23.595 0-42.667 19.072-42.667 42.667v170.667h-42.667c-23.595 0-42.667 19.072-42.667 42.667v128c0 117.632 95.701 213.333 213.333 213.333v0zM213.376 234.752h42.667c23.595 0 42.667-19.115 42.667-42.667v-170.667h85.333v170.667c0 23.552 19.072 42.667 42.667 42.667h42.667v85.333c0 70.571-57.429 128-128 128s-128-57.429-128-128v-85.333zM640.043 618.752c0 70.571 57.429 128 128 128s128-57.429 128-128c0-70.613-57.429-128-128-128s-128 57.429-128 128v0zM768.043 576.085c23.509 0 42.667 19.157 42.667 42.667 0 23.467-19.157 42.667-42.667 42.667s-42.667-19.2-42.667-42.667c0-23.509 19.157-42.667 42.667-42.667v0zM620.629 371.243c14.080 69.205 76.075 119.509 147.413 119.509s133.333-50.304 146.816-117.205c27.093-103.040 15.488-57.429 65.237-256.512 3.115-12.544 0.384-25.899-7.509-36.267-7.893-10.283-20.011-16.427-32.981-16.725 0 0-31.744-0.683-56.832-0.768-8.149-24.491-20.437-62.507-31.403-97.408-5.589-17.749-22.059-29.824-40.661-29.824h-85.333c-18.645 0-35.072 12.075-40.661 29.824-11.008 34.901-23.253 72.917-31.445 97.408-25.045 0.085-56.789 0.768-56.789 0.768-13.013 0.256-25.131 6.443-32.981 16.725-7.893 10.368-10.624 23.68-7.509 36.267 48.213 193.067 39.979 161.067 64.64 254.208v0zM682.752 149.419c31.275 0 33.408 0 73.856-128h22.869c38.827 122.795 42.411 128 70.4 128 3.285 0 24.576-0.085 34.432 0 0 0-27.221 108.075-52.48 204.8-5.931 29.184-33.323 51.2-63.744 51.2s-57.813-22.016-64.341-53.504c-23.723-90.24-51.925-202.496-51.925-202.496 9.813-0.085 28.416 0 30.933 0v0z" />
<glyph unicode="&#xe933;" glyph-name="modules" d="M959.659 442.411c-4.139 2.347-187.264 75.349-191.659 77.141v205.781c0 14.763-7.68 28.501-20.267 36.267-2.261 1.451-214.229 107.349-216.661 108.544-11.989 6.016-26.155 6.016-38.187 0-2.432-1.237-214.4-107.093-216.661-108.544-12.544-7.765-20.224-21.504-20.224-36.267v-205.781c-4.437-1.792-187.563-74.795-191.659-77.141-13.44-7.552-21.675-21.76-21.675-37.077v-256c0-15.019 7.851-28.928 20.693-36.608l213.333-128c6.741-4.053 14.336-6.059 21.973-6.059 5.333 0 10.752 0.939 15.829 2.987l197.504 79.019 197.504-79.019c5.077-2.048 10.496-2.987 15.829-2.987 7.637 0 15.232 2.005 21.973 6.059l213.333 128c12.843 7.68 20.693 21.589 20.693 36.608v256c0 15.317-8.235 29.525-21.675 37.077zM721.493 324.779l-113.749 45.525 121.429 72.832 113.749-45.483-121.429-72.875zM682.667 514.816l-128-76.843v154.283l128 64v-141.44zM469.333 438.016l-128 76.843v141.397l128-64v-154.24zM294.827 443.179l121.429-72.832-113.749-45.568-121.429 72.875 113.749 45.525zM341.333 248.405l128 51.2v-164.096l-128-51.2v164.096zM512 784.256l117.931-58.923-117.931-59.008-117.931 59.008 117.931 58.923zM128 329.941l128-76.8v-156.501l-128 76.843v156.459zM554.667 299.605l128-51.2v-164.096l-128 51.2v164.096zM768 96.683v156.501l128 76.8v-156.459l-128-76.843z" />
<glyph unicode="&#xe934;" glyph-name="music-note2" d="M834.603 824.661c-11.733 7.979-26.624 9.557-39.765 4.309l-426.667-170.667c-16.213-6.528-26.837-22.229-26.837-39.637v-271.019c-19.499 9.344-41.003 15.019-64 15.019-82.347 0-149.333-66.987-149.333-149.333s66.987-149.333 149.333-149.333 149.333 66.987 149.333 149.333v376.405l341.333 136.533v-250.624c-19.499 9.344-41.003 15.019-64 15.019-82.347 0-149.333-66.987-149.333-149.333s66.987-149.333 149.333-149.333 149.333 66.987 149.333 149.333v448c0 14.165-7.040 27.392-18.731 35.328zM277.333 149.333c-35.285 0-64 28.715-64 64s28.715 64 64 64 64-28.715 64-64-28.715-64-64-64zM704 277.333c-35.285 0-64 28.715-64 64s28.715 64 64 64 64-28.715 64-64-28.715-64-64-64z" />
<glyph unicode="&#xe935;" glyph-name="leaf" d="M290.731 576.768c-51.584-61.013-76.288-138.453-69.589-218.027 5.504-65.877 32.299-126.507 75.861-174.763l-124.587-144.341 64.597-55.765 125.739 145.664c46.848-28.8 100.736-44.757 156.16-44.757 88.32 0 171.605 38.656 228.48 106.069 108.885 128.725 138.837 472.789 148.608 641.152-138.027-37.376-510.592-143.189-605.269-255.232zM682.24 245.888c-40.661-48.128-100.181-75.776-163.328-75.776-34.859 0-68.821 9.088-99.371 25.216l245.931 284.843-64.597 55.723-247.552-286.72c-26.923 33.024-43.477 73.301-47.147 116.693-4.779 56.875 12.885 112.213 49.749 155.819 53.547 63.36 281.941 146.901 446.763 195.797-13.099-140.885-49.365-387.541-120.448-471.595z" />
<glyph unicode="&#xe936;" glyph-name="pine-tree" d="M846.635 218.624l-115.2 144.043h17.877c15.915 0 30.507 8.832 37.845 22.955s6.229 31.104-2.901 44.16l-104.491 149.248c9.344 3.712 17.237 10.709 22.059 19.925 7.339 14.123 6.229 31.104-2.901 44.16l-149.333 213.333c-15.957 22.827-53.973 22.827-69.931 0l-149.333-213.333c-9.131-13.056-10.24-30.037-2.901-44.16 4.821-9.216 12.715-16.213 22.059-19.925l-104.491-149.248c-9.131-13.056-10.24-30.037-2.901-44.16 7.424-14.123 21.973-22.955 37.931-22.955h17.877l-115.2-144.043c-10.24-12.843-12.245-30.336-5.163-45.141 7.125-14.72 22.059-24.149 38.485-24.149h256v-213.333h85.333v213.333h256c16.384 0 31.36 9.429 38.443 24.149 7.083 14.805 5.077 32.299-5.163 45.141zM304.768 234.667l115.2 144c10.24 12.8 12.245 30.379 5.163 45.184-7.125 14.72-22.059 24.149-38.443 24.149h-24.747l102.357 146.219c9.131 13.056 10.24 30.037 2.901 44.16-4.821 9.173-12.715 16.171-22.059 19.925l69.504 99.285 69.504-99.285c-9.344-3.755-17.237-10.709-22.059-19.925-7.339-14.123-6.229-31.104 2.901-44.16l102.4-146.219h-24.747c-16.384 0-31.36-9.429-38.443-24.149-7.125-14.805-5.12-32.384 5.163-45.184l115.2-144h-419.797z" />
<glyph unicode="&#xe937;" glyph-name="menu" d="M213.333 277.333h597.333v-128h-597.333v128zM213.333 490.667h597.333v-128h-597.333v128zM213.333 704h597.333v-128h-597.333v128z" />
<glyph unicode="&#xe938;" glyph-name="brush" d="M876.501 682.709c0 28.459-11.093 55.211-31.232 75.264-40.277 40.363-110.592 40.363-150.869 0.085l-135.808-135.765-60.288 60.373c-32.213 32.256-88.405 32.256-120.661 0.043l-120.661-120.661 30.208-30.208-30.208-30.208c-61.525-61.525-158.123-84.736-205.099-99.157l264.107-264.107c34.261-34.261 74.667-52.437 116.907-52.437v0c70.059 0 120.235 48.213 125.739 53.717l60.373 60.288 30.165-30.123 120.661 120.661c16.128 16.128 25.003 37.547 25.003 60.331s-8.875 44.16-25.003 60.288l-60.373 60.373 135.765 135.808c20.181 20.139 31.275 46.933 31.275 75.435zM498.304 199.979c-0.299-0.299-30.251-28.757-65.408-28.757v0c-19.627 0-38.144 9.003-56.576 27.435l-168.363 168.32c34.176 16.427 75.989 40.875 109.355 74.283l30.165 30.208 211.2-211.2-60.373-60.288zM649.173 290.517l-271.531 271.531 60.331 60.288 271.573-271.531-60.373-60.288zM784.939 667.605l-135.765-135.808-30.165 30.208 135.765 135.723c8.363 8.277 21.717 8.363 30.165-0.085 8.277-8.192 8.363-21.675 0-30.037z" />
<glyph unicode="&#xe939;" glyph-name="document" d="M853.333 874.667h-682.667c-47.061 0-85.333-38.272-85.333-85.333v-682.667c0-47.061 38.272-85.333 85.333-85.333h682.667c47.061 0 85.333 38.272 85.333 85.333v682.667c0 47.061-38.272 85.333-85.333 85.333zM853.205 106.667h-682.539v682.667h682.667l-0.128-682.667zM256 661.333h512v-85.333h-512v85.333zM256 490.667h512v-85.333h-512v85.333zM256 320h384v-85.333h-384v85.333z" />
<glyph unicode="&#xe93a;" glyph-name="pen-brush" d="M777.515 392.832l60.331-60.331 128 128c16.683 16.64 16.683 43.648 0 60.331l-54.699 54.699 28.032 27.989c52.139 52.139 52.139 137.088 0 189.269-50.517 50.56-138.667 50.56-189.269 0l-223.659-223.659-104.576 104.533c-2.731 41.216-19.371 79.744-48.853 109.227-60.8 60.843-108.715 58.027-152.107 55.851-27.904-1.365-54.571-8.789-102.827 39.424l-61.568 61.44-10.965-86.272c-1.024-8.149-24.192-201.557 86.059-311.765 29.483-29.483 68.053-46.208 109.269-48.896l104.533-104.533-78.805-78.805c-3.243-3.2-5.931-6.955-8.021-11.093l-128.896-257.835c-8.192-16.427-4.992-36.309 8.021-49.237 13.099-13.141 33.024-16.171 49.237-8.021l257.835 128.896c4.096 2.048 7.851 4.736 11.093 8.021l78.805 78.805 182.699-182.699c24.149-24.192 56.277-37.504 90.496-37.504s66.347 13.312 90.496 37.461c24.192 24.149 37.504 56.32 37.504 90.539 0 34.176-13.312 66.347-37.504 90.496l-182.699 182.699 135.339 135.339 24.533-24.533-97.835-97.835zM878.763 732.501c18.901-18.987 18.901-49.749 0-68.693l-34.304-34.261-68.565 68.608 34.304 34.304c18.347 18.347 50.304 18.304 68.565 0.043zM129.28 766.592c36.779-15.957 66.944-14.507 95.616-13.141 75.605 3.797 112.512-46.848 112.512-91.264 0-22.741-8.875-44.16-25.003-60.331-32.256-32.299-88.448-32.299-120.704 0-44.203 44.373-58.539 112.256-62.421 164.736zM338.347 515.669c12.331 7.253 24.064 15.531 34.432 25.899s18.645 22.059 25.899 34.389l67.2-67.157-60.331-60.331-67.2 67.2zM400.213 185.301l-137.173-68.523 68.565 137.173 383.957 383.915 68.565-68.608-383.915-383.957zM837.845 136.832c16.427-16.427 16.896-43.477 0-60.331-16.085-16.128-44.16-16.128-60.331 0l-182.699 182.699 60.331 60.331 182.699-182.699z" />
<glyph unicode="&#xe93b;" glyph-name="pencil" d="M888.363 824.363c-32.427 32.469-75.605 50.304-121.472 50.304-45.824 0-89.003-17.835-121.429-50.304l-486.784-486.741c0 0-0.043-0.128-0.128-0.171-3.456-3.499-9.344-12.715-11.136-19.669l-60.8-243.371c-3.669-14.507 0.64-29.952 11.221-40.491l0.085-0.085c10.581-10.581 25.941-14.891 40.491-11.264l243.371 60.885c6.955 1.792 16.213 7.68 19.669 11.136 0.043 0.043 0.171 0.128 0.171 0.128l486.784 486.699c32.427 32.469 50.304 75.563 50.261 121.472 0 45.867-17.835 89.003-50.261 121.472h-0.043zM614.869 672.939l122.155-122.155-365.568-365.568-122.155 122.155 365.568 365.568zM186.667 122.624l25.387 101.291 75.947-75.989-101.333-25.301zM828.117 763.989c32.597-32.64 32.597-89.557 0-122.197l-30.677-30.72-122.283 122.24 30.763 30.677c32.64 32.597 89.557 32.64 122.197 0z" />
<glyph unicode="&#xe93c;" glyph-name="pencil-ruler" d="M256 789.333c-70.571 0-128-57.429-128-128v-482.261l128-192 128 192v482.261c0 70.571-57.429 128-128 128zM298.667 204.928l-42.667-64-42.667 64v328.405h85.333v-328.405zM213.333 618.667v42.667c0 23.552 19.157 42.667 42.667 42.667s42.667-19.115 42.667-42.667v-42.667h-85.333zM810.667 917.333h-256c-47.061 0-85.333-38.315-85.333-85.333v-768c0-47.061 38.272-85.333 85.333-85.333h256c47.061 0 85.333 38.272 85.333 85.333v768c0 47.019-38.272 85.333-85.333 85.333zM554.667 64v128h128v85.333h-128v128h128v85.333h-128v128h128v85.333h-128v128h256l0.043-768h-256.043z" />
<glyph unicode="&#xe93d;" glyph-name="telephone" d="M853.333 21.333h-213.333c-282.283 0-512 229.675-512 512v213.333c0 47.104 38.272 85.333 85.333 85.333h170.667c47.061 0 85.333-38.229 85.333-85.333v-170.667c0-45.739-36.181-83.157-81.408-85.248 18.645-110.251 100.992-192.853 209.451-210.091 1.792 45.525 39.381 82.005 85.291 82.005h170.667c47.061 0 85.333-38.229 85.333-85.333v-170.667c0-47.104-38.229-85.333-85.333-85.333zM213.333 746.667v-213.333c0-235.264 191.403-426.667 426.667-426.667h213.376l-0.043 170.667h-170.667v-42.667c0-23.595-19.115-42.667-42.667-42.667-191.488 0-338.261 146.475-341.333 340.651-0.128 11.435 4.267 22.443 12.288 30.592s18.944 12.757 30.379 12.757h42.667v170.667h-170.667z" />
<glyph unicode="&#xe93e;" glyph-name="pictures" d="M635.179 531.456l-49.152 78.848-74.027-119.552h298.667l-100.437 161.067zM298.667 746.709h-85.333v-469.333c0-47.061 38.272-85.333 85.333-85.333h426.667v85.333h-426.667v469.333zM128 576.043h-85.333v-469.333c0-47.061 38.272-85.333 85.333-85.333h426.667v85.333h-426.667v469.333zM853.333 874.709h-384c-47.061 0-85.333-38.272-85.333-85.333v-341.333c0-47.061 38.272-85.333 85.333-85.333h384c47.061 0 85.333 38.272 85.333 85.333v341.333c0 47.061-38.272 85.333-85.333 85.333zM469.333 448.043v341.333h384l0.043-341.333h-384.043z" />
<glyph unicode="&#xe93f;" glyph-name="picture" d="M861.091 789.333h-698.182c-42.783 0-77.576-29.574-77.576-65.939v-527.515c0-36.366 34.793-65.939 77.576-65.939h698.182c42.822 0 77.576 29.574 77.576 65.939v527.515c0 36.366-34.754 65.939-77.576 65.939v0zM162.909 207.515v504.242h698.143l-0.078-504.242h-698.065zM473.212 362.667l-77.576 77.576-116.364-155.152h465.455l-155.152 232.727zM434.424 556.606c0-42.844-34.732-77.576-77.576-77.576s-77.576 34.732-77.576 77.576c0 42.844 34.732 77.576 77.576 77.576s77.576-34.732 77.576-77.576z" />
<glyph unicode="&#xe940;" glyph-name="home" d="M725.333 21.376h-85.333c-47.061 0-85.333 38.229-85.333 85.333v128h-85.333v-128c0-47.104-38.272-85.333-85.333-85.333h-85.333c-47.061 0-85.333 38.229-85.333 85.333v256h-85.333c-17.237 0-32.811 10.368-39.424 26.325-6.613 15.915-2.944 34.261 9.259 46.464l384 384c16.683 16.64 43.648 16.64 60.331 0l384-384c12.203-12.203 15.872-30.549 9.259-46.464-6.613-15.957-22.187-26.325-39.424-26.325h-85.333v-256c0-47.061-38.272-85.333-85.333-85.333zM426.667 320.043h170.667c23.552 0 42.667-19.157 42.667-42.667v-170.667h85.376l-0.043 298.667c0 23.509 19.115 42.667 42.667 42.667h25.003l-281.003 280.96-281.003-280.96h25.003c23.552 0 42.667-19.157 42.667-42.667v-298.667h85.333v170.667c0 23.552 19.072 42.667 42.667 42.667z" />
<glyph unicode="&#xe941;" glyph-name="home2" d="M1008.341 395.691l-112.341 91.989v173.696c0 23.509-19.115 42.667-42.667 42.667h-128c-23.296 0-42.112-18.773-42.539-41.984l-143.787 117.632c-16.299 13.355-39.893 12.8-55.552-1.323l-426.667-384c-13.141-11.776-17.621-30.507-11.307-47.019 6.315-16.469 22.187-27.349 39.851-27.349h85.333v-256c0-23.637 19.115-42.667 42.667-42.667h640c23.552 0 42.667 19.029 42.667 42.667v256h85.333c18.048 0 34.133 11.307 40.192 28.331 6.016 16.981 0.768 35.968-13.184 47.36zM768 618.709h42.667v-61.269l-42.667 34.901v26.368zM469.333 106.709v170.667h-128v-170.667h-85.333v213.333h554.667v-213.333h-341.333zM196.48 405.376l316.8 285.099 348.459-285.099h-665.259zM554.667 277.376h170.667v-128h-170.667v128z" />
<glyph unicode="&#xe942;" glyph-name="park" d="M976.981 296.107l-95.189 194.603h14.208c14.293 0 27.605 7.125 35.541 19.029s9.344 26.965 3.84 40.107l-125.269 298.667c-6.613 15.744-22.059 26.069-39.168 26.197-0.043 0-0.085 0-0.171 0-17.067 0-32.512-10.197-39.211-25.899l-128-298.667c-5.675-13.141-4.309-28.288 3.584-40.277 7.893-11.947 21.291-19.157 35.627-19.157h18.389l-99.029-193.963c-6.741-13.227-6.144-29.013 1.621-41.643 7.765-12.715 21.547-20.395 36.395-20.395h128v-256h82.517v256h128c14.72 0 28.416 7.595 36.181 20.053 7.808 12.501 8.576 28.117 2.133 41.344zM770.304 722.731l61.483-146.688h-18.432c-14.72 0-28.416-7.595-36.181-20.096-2.347-3.712-4.011-7.723-5.12-11.861-1.024 4.011-2.688 7.936-4.907 11.52-7.68 12.715-21.461 20.437-36.352 20.437h-23.381l62.891 146.688zM669.781 320.043l99.029 193.877c1.408 2.773 2.517 5.717 3.285 8.661 0.725-2.731 1.707-5.419 2.944-8.021l95.189-194.56h-200.448zM469.333 362.709h-426.667c-23.552 0-42.667-19.157-42.667-42.667v-213.333c0-23.552 19.115-42.667 42.667-42.667h42.667v-85.333h85.333v85.333h170.667v-85.333h85.333v85.333h42.667c23.552 0 42.667 19.115 42.667 42.667v213.333c0 23.552-19.115 42.667-42.667 42.667zM426.667 149.376h-341.333v128h341.333v-128z" />
<glyph unicode="&#xe943;" glyph-name="power-switch" d="M640 721.536v-94.848c76.416-44.373 128-126.891 128-221.355 0-141.184-114.816-256-256-256s-256 114.816-256 256c0 94.507 51.584 176.981 128 221.355v94.848c-124.928-50.773-213.333-173.269-213.333-316.203 0-188.203 153.131-341.333 341.333-341.333s341.333 153.131 341.333 341.333c0 142.933-88.405 265.429-213.333 316.203zM469.333 832h85.333v-341.333h-85.333v341.333z" />
<glyph unicode="&#xe944;" glyph-name="reply" d="M554.667 533.333h-195.669l97.835 97.835-60.331 60.331-200.832-200.832 200.832-200.832 60.331 60.331-97.835 97.835h195.669c94.080 0 170.667-76.544 170.667-170.667v-85.333h85.333v85.333c0 141.184-114.816 256-256 256v0z" />
<glyph unicode="&#xe945;" glyph-name="planet" d="M866.475 802.389c-54.997 55.125-170.453-3.712-264.96-69.504-28.288 8.96-58.368 13.781-89.515 13.781-164.693 0-298.667-134.016-298.667-298.667 0-31.147 4.821-61.269 13.739-89.515-65.792-94.592-124.544-210.005-69.547-265.003 14.421-14.464 33.749-21.632 57.771-21.632 65.579 0 153.813 54.187 207.701 91.563 28.16-8.917 57.899-14.080 89.003-14.080 164.693 0 298.667 133.973 298.667 298.667 0 31.104-5.163 60.8-14.080 89.003 48.939 70.485 130.603 204.757 69.888 265.387zM516.309 235.051c36.309 30.421 72.917 63.872 108.843 99.755 35.925 35.968 69.376 72.576 99.755 108.843-2.304-114.091-94.464-206.251-208.597-208.597zM765.312 605.397c-0.085 0.171-0.171 0.341-0.256 0.512-50.944-77.867-108.587-149.248-185.173-225.835-66.645-66.56-136.533-126.72-225.792-185.131 0.171-0.085 0.341-0.128 0.469-0.256-25.387-16.043-131.072-76.587-151.808-55.893-7.509 7.467-4.309 56.235 56.021 151.552 12.117-19.413 26.112-37.419 42.197-53.547 23.168 14.421 47.616 31.488 72.576 50.219-45.44 39.125-74.88 96.384-74.88 160.981 0 117.589 95.701 213.333 213.333 213.333 64.555 0 121.813-29.44 160.981-74.923 18.773 24.96 35.797 49.408 50.176 72.619-16.085 16.085-34.133 30.080-53.504 42.155 95.275 60.331 144.085 63.573 151.552 56.021 20.651-20.608-39.851-126.421-55.893-151.808z" />
<glyph unicode="&#xe946;" glyph-name="road" d="M766.976 841.259c-4.309 19.456-21.632 33.408-41.643 33.408h-426.667c-20.011 0-37.333-13.952-41.643-33.408l-170.667-768c-2.816-12.629 0.256-25.856 8.363-35.968 8.107-10.069 20.352-15.957 33.28-15.957h768c12.928 0 25.173 5.888 33.28 15.957 8.064 10.112 11.179 23.339 8.363 35.968l-170.667 768zM554.667 106.667v170.667h-85.333v-170.667h-288.128l151.68 682.667h136.448v-170.667h85.333v170.667h136.448l151.723-682.667h-288.171zM469.333 533.333h85.333v-170.667h-85.333v170.667z" />
<glyph unicode="&#xe947;" glyph-name="ruler" d="M955.093 711.296l-180.992 181.035c-32.256 32.256-88.533 32.171-120.661 0l-543.061-543.061c-16.171-16.043-25.045-37.461-25.045-60.288s8.875-44.331 25.003-60.416l180.992-180.992c16.085-16.128 37.547-25.003 60.373-25.003s44.245 8.875 60.373 25.003l543.019 543.061c16.085 16.128 24.96 37.547 24.96 60.331 0.043 22.827-8.875 44.245-24.96 60.331zM351.744 107.904v0l-181.077 180.992 90.539 90.496 90.539-90.496 60.331 60.331-90.539 90.496 90.539 90.581 90.496-90.581 60.331 60.373-90.496 90.539 90.539 90.496 90.539-90.581 60.331 60.373-90.539 90.539 90.496 90.539 180.992-181.077-543.019-543.019z" />
<glyph unicode="&#xe948;" glyph-name="lifebuoy" d="M896 533.291h-9.856c-32.725 143.232-145.536 256.085-288.811 288.811v9.856c0 23.552-19.072 42.667-42.667 42.667h-85.333c-23.595 0-42.667-19.115-42.667-42.667v-9.856c-143.232-32.683-256.085-145.536-288.768-288.811h-9.899c-23.595 0-42.667-19.115-42.667-42.667v-85.333c0-23.552 19.072-42.667 42.667-42.667h9.899c32.683-143.232 145.493-256.085 288.768-288.811v-9.856c0-23.552 19.072-42.667 42.667-42.667h85.333c23.595 0 42.667 19.115 42.667 42.667v9.856c143.232 32.683 256.085 145.536 288.811 288.811h9.856c23.595 0 42.667 19.115 42.667 42.667v85.333c0 23.552-19.072 42.667-42.667 42.667zM798.123 533.291h-139.179c-14.933 25.557-36.011 46.677-61.611 61.568v139.179c96.171-28.757 172.032-104.619 200.789-200.747zM512 362.624c-47.104 0-85.333 38.272-85.333 85.333s38.229 85.333 85.333 85.333 85.333-38.272 85.333-85.333-38.229-85.333-85.333-85.333zM426.667 734.037v-139.179c-25.557-14.891-46.677-36.053-61.568-61.568h-139.179c28.757 96.128 104.619 171.989 200.747 200.747zM225.92 362.624h139.179c14.933-25.643 36.053-46.72 61.568-61.568v-139.179c-96.128 28.715-171.989 104.576-200.747 200.747zM597.333 161.877v139.179c25.6 14.891 46.677 35.968 61.568 61.568h139.179c-28.715-96.171-104.576-172.032-200.747-200.747z" />
<glyph unicode="&#xe949;" glyph-name="bullhorn" d="M794.24 780.331c-10.368 8.064-23.936 10.965-36.565 7.765l-506.923-126.763h-122.752c-47.104 0-85.333-38.229-85.333-85.333v-170.667c0-47.019 38.229-85.333 85.333-85.333h85.333v-85.333c0-9.259 2.987-18.176 8.533-25.6l128-170.667 68.267 51.2-119.467 159.317v59.093l459.008-114.731c3.413-0.853 6.869-1.28 10.325-1.28 9.429 0 18.688 3.157 26.24 9.088 10.325 8.064 16.427 20.437 16.427 33.579v512c0 13.184-6.101 25.6-16.427 33.664zM128 576h85.333v-170.667h-85.333v170.667zM725.333 289.323l-426.667 106.667v189.355l426.667 106.667v-402.688zM853.333 610.816v-240.256c49.579 17.664 85.333 64.597 85.333 120.064 0 55.637-35.755 102.528-85.333 120.192z" />
<glyph unicode="&#xe94a;" glyph-name="shield" d="M513.792-21.333c-421.803 0-426.667 695.723-426.667 725.333 0 15.488 8.405 29.739 21.931 37.291l384 213.333c12.928 7.168 28.544 7.168 41.472 0l384-213.333c13.525-7.552 21.931-21.803 21.931-37.291 0-29.611-4.864-725.333-426.667-725.333zM173.099 679.253c4.693-117.803 42.155-615.253 340.693-615.253s336 497.451 340.651 615.253l-340.651 189.312-340.693-189.312z" />
<glyph unicode="&#xe94b;" glyph-name="truck" d="M853.333 789.333h-426.667c-47.104 0-85.333-38.315-85.333-85.333v-42.667h-85.333c-94.080 0-170.667-76.544-170.667-170.667v-256c0-23.552 19.072-42.667 42.667-42.667h93.227c17.664-49.579 64.555-85.333 120.107-85.333s102.443 35.755 120.149 85.333h143.701c17.664-49.579 64.597-85.333 120.107-85.333s102.443 35.755 120.149 85.333h50.56c23.595 0 42.667 19.115 42.667 42.667v469.333c0 47.019-38.229 85.333-85.333 85.333zM853.333 704v-426.667h-7.851c-17.707 49.579-64.64 85.333-120.149 85.333s-102.443-35.755-120.149-85.333h-143.659c-7.253 20.224-19.2 37.931-34.816 52.011v374.656h426.624zM170.667 490.667c0 47.061 38.229 85.333 85.333 85.333h85.333v-213.333c-55.552 0-102.443-35.755-120.149-85.333h-50.517v213.333zM341.333 192c-23.509 0-42.667 19.115-42.667 42.667 0 23.509 19.157 42.667 42.667 42.667s42.667-19.157 42.667-42.667c0-23.552-19.157-42.667-42.667-42.667zM725.333 192c-23.509 0-42.667 19.115-42.667 42.667 0 23.509 19.157 42.667 42.667 42.667s42.667-19.157 42.667-42.667c0-23.552-19.157-42.667-42.667-42.667zM213.333 533.333h85.333v-85.333h-85.333v85.333z" />
<glyph unicode="&#xe94c;" glyph-name="smile" d="M725.333 405.333h-426.667c-23.552 0-42.667-19.115-42.667-42.667 0-111.659 122.027-213.333 256-213.333s256 101.675 256 213.333c0 23.552-19.115 42.667-42.667 42.667zM512 234.667c-69.803 0-132.011 40.576-157.909 85.333h316.203c-25.216-44.885-86.443-85.333-158.293-85.333zM512 874.667c-235.264 0-426.667-191.403-426.667-426.667 0-235.307 191.403-426.667 426.667-426.667s426.667 191.36 426.667 426.667c0 235.264-191.403 426.667-426.667 426.667zM512 106.667c-188.203 0-341.333 153.131-341.333 341.333s153.131 341.333 341.333 341.333 341.333-153.131 341.333-341.333-153.131-341.333-341.333-341.333zM341.333 661.333h85.333v-170.667h-85.333v170.667zM597.333 661.333h85.333v-170.667h-85.333v170.667z" />
<glyph unicode="&#xe94d;" glyph-name="rocket" d="M938.667 874.667c-13.824 13.781-34.773 20.224-65.92 20.224-62.379 0-184.704-29.44-265.941-110.72l-168.533-168.491h-283.989c-11.307 0-22.187-4.523-30.208-12.501l-30.165-30.208c-16.64-16.683-16.64-43.691 0-60.373l482.731-482.688c8.32-8.32 19.243-12.501 30.165-12.501s21.845 4.181 30.165 12.501l30.208 30.165c8.021 8.021 12.459 18.859 12.459 30.208v284.032l168.533 168.533c61.355 61.312 88.405 140.501 99.029 182.144 8.619 33.835 25.045 116.096-8.533 149.675zM352.981 530.347l-78.037-78.037-78.080 78.037h156.117zM335.275 391.936l301.696 301.696 120.661-120.619-301.653-301.739-120.704 120.661zM594.347 132.907l-78.037 77.995 78.037 78.080v-156.075zM814.976 636.331l-114.688 114.688c59.733 41.941 133.675 58.539 172.459 58.539 0.427 0 0.811 0 1.195 0 0.512-34.389-15.488-111.275-58.965-173.227zM335.232 150.571c-19.2-19.157-92.459-35.755-164.437-43.733 8.149 72.235 25.045 145.749 43.776 164.437 11.008 11.051 24.448 18.048 38.528 21.803l-64.427 64.427c-12.203-7.168-23.979-15.403-34.432-25.856-58.581-58.624-70.869-234.581-72.747-269.269l-2.56-47.445 47.488 2.56c34.688 1.877 210.645 14.251 269.184 72.789 10.496 10.496 18.688 22.229 25.856 34.475l-64.427 64.469c-3.712-14.208-10.709-27.563-21.803-38.656z" />
<glyph unicode="&#xe94e;" glyph-name="basketball" d="M512 874.667c-235.264 0-426.667-191.403-426.667-426.667s191.403-426.667 426.667-426.667 426.667 191.403 426.667 426.667-191.403 426.667-426.667 426.667zM794.795 257.067c-35.371 42.368-58.197 93.483-66.048 148.267h121.643c-6.827-54.357-26.24-104.917-55.595-148.267zM173.611 405.333h121.6c-7.936-54.571-30.763-105.813-66.048-148.267-29.355 43.392-48.725 93.909-55.552 148.267zM229.205 638.891c35.371-42.325 58.197-93.44 66.048-148.224h-121.643c6.827 54.357 26.24 104.875 55.595 148.224zM554.667 490.667v295.723c69.803-8.789 132.949-38.656 183.125-83.115-53.035-59.349-86.571-133.376-95.403-212.608h-87.723zM469.333 490.667h-87.68c-8.789 79.403-42.453 153.259-95.445 212.565 50.133 44.459 113.323 74.368 183.125 83.157v-295.723zM381.525 405.333h87.808v-295.723c-69.675 8.789-132.736 38.571-182.912 82.901 52.949 59.349 86.229 133.76 95.104 212.821zM554.667 405.333h87.68c8.789-79.36 42.411-153.259 95.445-212.565-50.176-44.459-113.323-74.368-183.125-83.157v295.723zM728.789 490.667c7.893 54.656 30.72 105.813 66.048 148.224 29.355-43.349 48.725-93.867 55.552-148.224h-121.6z" />
<glyph unicode="&#xe94f;" glyph-name="dumbbell" d="M810.667 746.667h-85.333c-47.061 0-85.333-38.229-85.333-85.333v-128h-256v128c0 47.104-38.272 85.333-85.333 85.333h-85.333c-47.061 0-85.333-38.229-85.333-85.333v-341.333c0-47.061 38.272-85.333 85.333-85.333h85.333c47.061 0 85.333 38.272 85.333 85.333v128h256v-128c0-47.061 38.272-85.333 85.333-85.333h85.333c47.061 0 85.333 38.272 85.333 85.333v341.333c0 47.104-38.272 85.333-85.333 85.333zM213.333 320v341.333h85.333l0.043-341.333h-85.376zM725.333 320v341.333h85.333l0.043-341.333h-85.376zM938.667 576h85.333v-170.667h-85.333v170.667zM0 576h85.333v-170.667h-85.333v170.667z" />
<glyph unicode="&#xe950;" glyph-name="football-field" d="M981.333 789.333h-938.667c-23.552 0-42.667-19.072-42.667-42.667v-597.333c0-23.595 19.115-42.667 42.667-42.667h938.667c23.552 0 42.667 19.072 42.667 42.667v597.333c0 23.595-19.115 42.667-42.667 42.667zM512 362.667c-47.061 0-85.333 38.272-85.333 85.333 0 47.104 38.272 85.333 85.333 85.333s85.333-38.229 85.333-85.333c0-47.061-38.272-85.333-85.333-85.333zM85.333 533.333h85.333v-170.667h-85.333v170.667zM85.333 277.333h170.667v341.333h-170.667v85.333h384v-91.435c-73.387-19.072-128-85.291-128-164.565s54.613-145.536 128-164.608v-91.392h-384v85.333zM938.667 362.667h-85.333v170.667h85.333v-170.667zM768 618.667v-341.333h170.667v-85.333h-384v91.392c73.387 19.115 128 85.333 128 164.608s-54.613 145.493-128 164.565v91.435h384v-85.333h-170.667z" />
<glyph unicode="&#xe951;" glyph-name="soccer" d="M512 874.667c-235.264 0-426.667-191.403-426.667-426.667s191.403-426.667 426.667-426.667 426.667 191.403 426.667 426.667-191.403 426.667-426.667 426.667zM805.248 274.133l-109.483 10.368-77.056 89.045 15.488 77.44 125.269 37.333 92.885-59.691c-3.157-56.192-19.883-108.715-47.104-154.496zM328.235 284.501l-109.483-10.368c-27.221 45.781-43.947 98.304-47.104 154.539l92.885 59.691 125.269-37.333 15.488-77.44-77.056-89.088zM794.112 639.829l-53.205-90.155-138.667-41.387-58.24 43.691v141.355l77.611 77.611c70.741-24.064 131.2-70.528 172.501-131.115zM402.389 770.944l77.611-77.611v-141.355l-58.283-43.691-138.624 41.387-53.205 90.155c41.301 60.587 101.76 107.051 172.501 131.115zM384.896 131.456l-13.909 104.619 72.576 83.925h136.832l72.619-83.925-13.909-104.576c-39.296-15.915-82.176-24.832-127.104-24.832s-87.808 8.917-127.104 24.789z" />
<glyph unicode="&#xe952;" glyph-name="tennis2" d="M248.661 305.323l-120.661-120.661c-33.323-33.323-33.323-87.339 0-120.661s87.339-33.323 120.661 0l120.661 120.661-30.165 30.208 70.272 70.229c53.333-39.979 118.827-61.909 188.8-61.909 93.995 0 187.691 39.765 257.024 109.099 137.259 137.301 145.963 351.872 19.413 478.421-57.813 57.813-136.491 89.685-221.397 89.685-94.037 0-187.691-39.808-256.981-109.141-66.091-66.005-104.747-151.936-108.757-241.749-3.413-75.861 18.475-146.731 61.525-204.075l-70.229-70.229-30.165 30.123zM351.488 546.645c1.195 26.795 6.272 53.163 14.763 78.549l78.507-78.549-83.669-83.669c-7.467 26.496-10.923 54.613-9.6 83.669zM490.027 501.419l75.435-75.435-100.949-100.907c-15.189 9.472-29.568 20.224-42.411 33.024s-23.893 26.965-33.365 42.027l101.291 101.291zM535.253 546.645l105.643 105.685 75.435-75.435-105.643-105.685-75.435 75.435zM527.872 297.899l82.859 82.816 78.293-78.251c-29.44-9.856-60.075-15.275-90.709-15.275-24.533 0-47.872 4.395-70.443 10.709zM810.027 377.557c-18.005-18.005-38.144-33.28-59.392-46.208l-94.677 94.677 105.643 105.643 94.763-94.763c-12.8-21.035-28.032-41.088-46.336-59.349zM885.248 498.432l-78.421 78.507 83.541 83.499c14.507-51.669 12.8-108.245-5.12-162.005zM862.848 723.413l-101.291-101.248-75.392 75.435 100.949 100.907c15.189-9.515 29.568-20.309 42.368-33.024 12.928-12.928 23.979-27.093 33.365-42.069zM723.755 825.685l-82.859-82.859-78.293 78.293c29.397 9.856 60.032 15.275 90.667 15.275 24.533 0.043 47.915-4.352 70.485-10.709zM441.557 746.027c18.005 18.005 38.144 33.28 59.435 46.208l94.635-94.635-105.643-105.685-94.805 94.891c12.885 21.163 28.245 41.088 46.379 59.221zM828.331 228.437c-70.571 0-128-57.429-128-128s57.429-128 128-128 128 57.429 128 128-57.429 128-128 128zM828.331 57.771c-23.509 0-42.667 19.157-42.667 42.667s19.157 42.667 42.667 42.667 42.667-19.157 42.667-42.667-19.157-42.667-42.667-42.667z" />
<glyph unicode="&#xe953;" glyph-name="sun" d="M512 661.333c-117.632 0-213.333-95.701-213.333-213.333s95.701-213.333 213.333-213.333 213.333 95.701 213.333 213.333-95.701 213.333-213.333 213.333zM512 320c-70.571 0-128 57.429-128 128s57.429 128 128 128 128-57.429 128-128-57.429-128-128-128zM469.333 874.667h85.333v-128h-85.333v128zM783.569 779.885l60.339-60.339-90.569-90.569-60.339 60.339 90.569 90.569zM810.667 490.667h128v-85.333h-128v85.333zM783.537 116.096l-90.595 90.544 60.292 60.326 90.595-90.544-60.292-60.326zM469.333 149.333h85.333v-128h-85.333v128zM240.514 116.127l-60.318 60.301 90.496 90.522 60.318-60.301-90.496-90.522zM85.333 490.667h128v-85.333h-128v85.333zM240.484 779.87l90.483-90.534-60.356-60.322-90.483 90.534 60.356 60.322z" />
<glyph unicode="&#xe954;" glyph-name="tag" d="M426.667 21.333c10.923 0 21.845 4.181 30.165 12.501l469.333 469.333c8.021 7.979 12.501 18.816 12.501 30.165v298.667c0 23.595-19.072 42.667-42.667 42.667h-298.667c-11.349 0-22.187-4.48-30.165-12.501l-469.333-469.333c-16.683-16.683-16.683-43.648 0-60.331l298.667-298.667c8.32-8.32 19.243-12.501 30.165-12.501v0zM853.333 550.997l-426.667-426.667-238.336 238.336 426.667 426.667h238.336v-238.336zM640 661.333c0-47.128 38.205-85.333 85.333-85.333s85.333 38.205 85.333 85.333c0 47.128-38.205 85.333-85.333 85.333s-85.333-38.205-85.333-85.333z" />
<glyph unicode="&#xe955;" glyph-name="library2" d="M936.448 120.192l-42.667 128c-5.803 17.408-22.101 29.184-40.491 29.184h-42.667v298.667h42.667c23.552 0 42.667 19.072 42.667 42.667v85.333c0 17.792-11.051 33.707-27.691 39.936l-341.333 128c-9.685 3.627-20.309 3.627-29.952 0l-341.333-128c-16.64-6.229-27.648-22.144-27.648-39.936v-85.333c0-23.595 19.115-42.667 42.667-42.667h42.667v-298.667h-42.667c-18.389 0-34.688-11.776-40.491-29.184l-42.667-128c-4.352-13.013-2.176-27.307 5.845-38.443s20.907-17.707 34.645-17.707h768c13.696 0 26.581 6.571 34.603 17.707s10.197 25.429 5.845 38.443zM725.333 277.376h-85.333v298.667h85.333v-298.667zM554.667 576.043v-298.667h-85.333v298.667h85.333zM213.333 674.432l298.667 112 298.667-112v-13.056h-597.333v13.056zM298.667 576.043h85.333v-298.667h-85.333v298.667zM187.179 149.376l14.208 42.667h621.184l14.208-42.667h-649.6z" />
<glyph unicode="&#xe956;" glyph-name="traffic-lights" d="M640 874.667h-256c-47.061 0-85.333-38.229-85.333-85.333v-512c0-47.104 38.272-85.333 85.333-85.333h85.333v-170.667h85.333v170.667h85.333c47.061 0 85.333 38.229 85.333 85.333v512c0 47.104-38.272 85.333-85.333 85.333zM384 277.333v512h256l0.043-512h-256.043zM576 682.667c0-35.346-28.654-64-64-64s-64 28.654-64 64c0 35.346 28.654 64 64 64s64-28.654 64-64zM576 533.333c0-35.346-28.654-64-64-64s-64 28.654-64 64c0 35.346 28.654 64 64 64s64-28.654 64-64zM576 384c0-35.346-28.654-64-64-64s-64 28.654-64 64c0 35.346 28.654 64 64 64s64-28.654 64-64z" />
<glyph unicode="&#xe957;" glyph-name="train" d="M512 832c-235.264 0-426.667-191.403-426.667-426.667v-341.333h85.333v341.333c0 188.203 153.131 341.333 341.333 341.333s341.333-153.131 341.333-341.333v-341.333h85.333v341.333c0 235.264-191.403 426.667-426.667 426.667zM554.667 362.667l28.459-85.333h-142.251l28.459 85.333h-85.333l-128-384h85.333l14.208 42.667h312.917l14.208-42.667h85.333l-128 384h-85.333zM384 106.667l28.459 85.333h199.083l28.459-85.333h-256z" />
<glyph unicode="&#xe958;" glyph-name="travel-bag" d="M853.333 618.667h-132.309c-19.797 97.237-105.984 170.667-209.024 170.667s-189.227-73.429-209.024-170.667h-132.309c-47.061 0-85.333-38.229-85.333-85.333v-426.667c0-47.061 38.272-85.333 85.333-85.333h682.667c47.061 0 85.333 38.272 85.333 85.333v426.667c0 47.104-38.272 85.333-85.333 85.333zM512 704c55.637 0 103.083-35.669 120.704-85.333h-241.408c17.621 49.664 65.067 85.333 120.704 85.333zM170.667 106.667v426.667h682.667l0.043-426.667h-682.709zM256 448h85.333v-256h-85.333v256zM682.667 448h85.333v-256h-85.333v256z" />
<glyph unicode="&#xe959;" glyph-name="teacup" d="M725.333 704v42.667c0 23.552-19.072 42.667-42.667 42.667h-512c-23.595 0-42.667-19.115-42.667-42.667v-426.667c0-117.632 95.701-213.333 213.333-213.333h170.667c117.632 0 213.333 95.701 213.333 213.333v42.667c94.080 0 170.667 76.544 170.667 170.667s-76.587 170.667-170.667 170.667zM512 192h-170.667c-70.571 0-128 57.429-128 128v384h426.667v-384c0-70.571-57.429-128-128-128zM725.333 448v170.667c47.104 0 85.333-38.229 85.333-85.333 0-47.061-38.229-85.333-85.333-85.333zM256 576h85.333v-256h-85.333v256z" />
<glyph unicode="&#xe95a;" glyph-name="flag" d="M883.499 606.123l-256 256c-16.683 16.683-43.648 16.683-60.331 0l-140.501-140.501-55.168 55.168c-16.683 16.683-43.648 16.683-60.331 0l-213.333-213.333c-16.683-16.683-16.683-43.648 0-60.331l469.333-469.333 60.331 60.331-183.168 183.168 67.669 67.627 55.168-55.168c8.32-8.32 19.243-12.501 30.165-12.501s21.845 4.181 30.165 12.501l256 256c16.683 16.683 16.683 43.691 0 60.373zM188.331 533.291l153.003 152.96 195.669-195.669-153.003-152.96-195.669 195.669zM640 422.955v67.669c0 10.923-4.181 21.845-12.501 30.165l-140.501 140.501 110.336 110.293 195.669-195.669-153.003-152.96z" />
<glyph unicode="&#xe95b;" glyph-name="thumbs-down" d="M896 874.624h-170.667c-23.595 0-42.667-19.115-42.667-42.667v-22.272l-154.837 61.909c-4.992 2.005-10.411 3.029-15.829 3.029h-341.333c-20.608 0-38.272-14.763-41.984-35.029l-85.333-469.333c-2.261-12.459 1.152-25.259 9.259-34.944s20.053-15.36 32.725-15.36h256v-170.667c0-23.552 19.072-42.667 42.667-42.667h128c17.067 0 32.512 10.155 39.211 25.856l116.907 272.811h14.549c0-23.552 19.072-42.667 42.667-42.667h170.667c23.595 0 42.667 19.115 42.667 42.667v426.667c0 23.552-19.072 42.667-42.667 42.667zM640 490.624c-17.067 0-32.512-10.155-39.211-25.813l-116.907-272.853h-57.216v170.667c0 23.552-19.072 42.667-42.667 42.667h-247.552l69.803 384h297.557l178.859-71.595v-227.072h-42.667zM853.333 447.957h-85.333v341.333h85.333v-341.333z" />
<glyph unicode="&#xe95c;" glyph-name="thumbs-up" d="M971.435 646.016c-8.107 9.685-20.096 15.317-32.768 15.317h-256v170.667c0 23.552-19.072 42.667-42.667 42.667h-128c-17.067 0-32.512-10.155-39.211-25.813l-116.907-272.853h-14.549c0 23.552-19.072 42.667-42.667 42.667h-170.667c-23.595 0-42.667-19.115-42.667-42.667v-426.667c0-23.552 19.072-42.667 42.667-42.667h170.667c23.595 0 42.667 19.115 42.667 42.667v22.272l154.837-61.909c4.992-2.005 10.411-3.029 15.829-3.029h341.333c20.608 0 38.272 14.763 41.984 35.029l85.333 469.333c2.261 12.459-1.152 25.259-9.216 34.987zM256 192h-85.333v341.333h85.333v-341.333zM817.749 192h-297.557l-178.859 71.552v227.115h42.667c17.067 0 32.512 10.155 39.211 25.856l116.907 272.811h57.216v-170.667c0-23.552 19.072-42.667 42.667-42.667h247.552l-69.803-384z" />
<glyph unicode="&#xe95d;" glyph-name="window" d="M896 874.667h-768c-47.061 0-85.333-38.272-85.333-85.333v-682.667c0-47.061 38.272-85.333 85.333-85.333h768c47.061 0 85.333 38.272 85.333 85.333v682.667c0 47.061-38.272 85.333-85.333 85.333zM896 704h-341.333v85.333h341.333v-85.333zM341.333 704v85.333h128v-85.333h-128zM256 789.333v-85.333h-128v85.333h128zM128 106.667v512h767.957l-0.085-512h-767.872zM213.333 533.333h597.333v-85.333h-597.333v85.333zM213.333 405.333h85.333v-213.333h-85.333v213.333zM384 405.333h426.667v-85.333h-426.667v85.333zM384 277.333h426.667v-85.333h-426.667v85.333z" />
<glyph unicode="&#xe95e;" glyph-name="text" d="M256 661.333h256v-85.333h-256v85.333zM256 490.667h256v-85.333h-256v85.333zM256 320h512v-85.333h-512v85.333zM853.333 874.667h-682.667c-47.061 0-85.333-38.272-85.333-85.333v-682.667c0-47.061 38.272-85.333 85.333-85.333h682.667c47.061 0 85.333 38.272 85.333 85.333v682.667c0 47.061-38.272 85.333-85.333 85.333zM853.205 106.667h-682.539v682.667h682.667l-0.128-682.667zM597.333 661.333h170.667v-256h-170.667v256z" />
</font>
</defs>
</svg>
